<?xml version="1.0" standalone="no"?>
<!DOCTYPE svg PUBLIC "-//W3C//DTD SVG 1.1//EN" "http://www.w3.org/Graphics/SVG/1.1/DTD/svg11.dtd" >
<svg xmlns="http://www.w3.org/2000/svg" xmlns:xlink="http://www.w3.org/1999/xlink" version="1.1">
<metadata>
Created by FontForge 20170731 at Thu Apr  8 12:18:27 2021
 By Aleksey,,,
Font software Copyright 1991 Adobe Systems Incorporated. Typeface designs Copyright 1991 The Monotype Corporation. All rights reserved.
</metadata>
<defs>
<font id="PerpetuaMTStd-Italic" horiz-adv-x="641" >
  <font-face 
    font-family="Perpetua MT Std"
    font-weight="400"
    font-style="italic"
    font-stretch="normal"
    units-per-em="2048"
    panose-1="2 2 5 2 6 5 5 9 8 4"
    ascent="1307"
    descent="-741"
    x-height="674"
    cap-height="1137"
    bbox="-471 -575 2060 1608"
    underline-thickness="102"
    underline-position="-307"
    slope="-12"
    unicode-range="U+0020-FB04"
  />
<missing-glyph horiz-adv-x="1021" 
d="M25 0v1362h972v-1362h-972zM180 1266l332 -498l330 498h-662zM123 1178v-992q0 -1 82.5 123t164.5 249l83 124zM901 1178l-332 -496l332 -498v994zM842 98l-330 496l-332 -496h662z" />
    <glyph glyph-name="f_f" unicode="ff" horiz-adv-x="929" 
d="M786 616l-100 -557q-46 -257 -104 -381q-40 -86 -101 -142.5t-116 -77.5t-109 -21q-50 0 -114.5 14.5t-108.5 40.5l35 80q-130 -135 -293 -135q-54 0 -126.5 13t-119.5 42l33 156l30 -6q7 -62 58.5 -114t132.5 -52q16 0 35.5 4t55 17t73 47t65.5 85q60 107 92 301
l125 686h-145l10 58h146l14 86q44 254 140 382t261 128q68 0 138 -31l18 27h31l-31 -154q106 154 270 154q58 0 131 -27l15 27h35l-35 -187h-37q-6 47 -23.5 79.5t-40 46t-39 18t-32.5 4.5q-32 0 -60 -14t-48 -33t-37.5 -52.5t-28 -58.5t-21 -65t-14.5 -59t-10 -52l-43 -219
h116l-14 -58h-109zM354 674h330l16 96q38 210 93 309h-23q-4 22 -7.5 36t-14.5 38.5t-25 39.5t-39 26.5t-57 11.5q-93 0 -149 -92t-93 -297zM561 10l113 606h-328l-106 -600q-24 -142 -51.5 -230.5t-82.5 -158.5q9 -62 55 -105.5t107 -43.5q113 0 177 124t116 408z" />
    <glyph glyph-name="fi" unicode="fi" horiz-adv-x="956" 
d="M303 618l-88 -536q-35 -217 -81 -339t-120 -196q-47 -47 -119.5 -78.5t-148.5 -31.5q-149 0 -217 55l31 141h34q15 -70 61 -112.5t105 -42.5q111 0 190.5 113.5t117.5 326.5l125 700h-150l12 56h150q49 297 150 446.5t276 149.5q77 0 176 -37l20 35h35l-39 -187h-35
q-27 148 -170 148q-39 0 -69.5 -12.5t-65.5 -47.5q-63 -63 -99 -181t-69 -314h373q56 0 119 18h33l-111 -524q-19 -91 -3 -112t105 -21l-6 -35h-360l8 35q75 0 95.5 16t35.5 88l80 371q16 60 8 84t-61 24h-328zM809 979q27 0 46 -19.5t19 -46.5q0 -28 -18.5 -47.5
t-46.5 -19.5t-48 19.5t-20 47.5q0 26 20 46t48 20z" />
    <glyph glyph-name="fl" unicode="fl" horiz-adv-x="966" 
d="M956 1219l-225 -1061q-16 -62 -3.5 -92.5t67.5 -30.5h45l-9 -35h-356l8 35h25q56 0 77.5 27t41.5 122l92 434h-414l-121 -692q-24 -137 -70.5 -235.5t-108 -152t-126.5 -77.5t-139 -24q-120 0 -211 55l31 148h34q49 -162 179 -162q36 0 68 13.5t57 33t48 54t39 65t32 78
t25.5 80t20.5 84t16 77.5t13 72l103 583h-144v56h154q40 289 146.5 442.5t275.5 153.5q83 0 182 -37l27 35h34l-18 -88q19 8 72 39h32zM729 674l88 407h-22q-30 148 -170 148q-91 0 -158.5 -80t-95.5 -215l-56 -260h414z" />
    <glyph glyph-name="f_f_i" unicode="ffi" horiz-adv-x="1398" 
d="M778 616l-94 -528q-19 -107 -26.5 -146.5t-23.5 -105.5t-35.5 -108t-47.5 -86q-62 -100 -158 -152.5t-184 -52.5q-113 0 -205 67l21 62q-142 -129 -283 -129q-39 0 -103.5 15.5t-109.5 51.5l31 144h32q20 -85 70 -123.5t102 -38.5q77 0 138.5 56.5t91.5 121.5
q50 111 96 375l103 577h-146l10 58h148l10 59q6 35 12 65.5t23 88.5t38 104.5t57.5 101t80 91t107 61.5t137.5 25q65 0 135 -27l16 25h35l-35 -154q133 152 307 152q52 0 119 -23l21 25h32l-32 -178h-33q-1 14 -3 27t-11 35t-22.5 37.5t-40.5 27.5t-62 12q-61 0 -111 -43
t-83 -114t-52.5 -134.5t-32.5 -132.5l-26 -131h280q116 0 164 18h41l-107 -534q-8 -51 -8 -72q0 -23 17.5 -37t48.5 -14h49l-8 -35h-359l9 35q29 0 47.5 1.5t33 10t22 15.5t15.5 29t11.5 39t11.5 56l65 308q0 1 4.5 27.5t4.5 37.5q0 20 -7.5 32t-23.5 17t-30 6.5t-38 1.5
h-256zM317 674h359l12 67q19 103 43 179t40 106.5t38 63.5h-25q-1 14 -3 27.5t-11 36t-23.5 38t-42.5 27.5t-65 12q-43 0 -81 -19.5t-65 -48t-52 -74t-39.5 -82t-29.5 -89.5t-21.5 -80t-14.5 -68zM561 39l105 577h-357l-94 -524q-36 -210 -58.5 -283t-88.5 -186
q55 -139 172 -139q177 0 261 275q28 92 60 280zM1245 975q28 0 47 -19t19 -47t-19 -46.5t-47 -18.5t-46.5 18.5t-18.5 46.5q0 27 19 46.5t46 19.5z" />
    <glyph glyph-name="f_f_l" unicode="ffl" horiz-adv-x="1394" 
d="M1386 1212l-217 -1052q-10 -54 -10 -76q0 -25 19.5 -37t46.5 -12h47l-6 -35h-359l8 35q34 0 56.5 5.5t36 13.5t23.5 30.5t15 41t13 60.5l88 430h-367l-98 -526q-23 -124 -34.5 -180t-36 -132t-56.5 -132q-40 -72 -105 -121t-126 -68.5t-117 -19.5q-116 0 -203 67l19 64
q-76 -67 -136 -99t-145 -32q-106 0 -213 67l31 146h32q50 -162 168 -162q52 0 95 20.5t75 62.5t56 88t43.5 116t32 126t26.5 136l107 579h-150l12 58h148l10 59q40 201 88 291q33 62 75.5 109t81 72.5t81 41t71.5 19.5t58 4q65 0 135 -27l18 25h35l-35 -158q138 158 293 158
q73 0 129 -25l27 25h28l-14 -88q42 17 64 32h36zM322 674h352l12 71q19 106 40 175t36.5 99.5t44.5 74.5h-25q-1 20 -5.5 38t-18 44.5t-44.5 42.5t-77 16q-99 0 -180.5 -111t-120.5 -348zM559 43l105 573h-355l-94 -520q-34 -198 -59 -278t-88 -189q54 -139 170 -139
q37 0 69 12.5t57 29.5t48 50.5t39 60.5t31.5 74.5t24.5 78t21 85t16.5 81.5t14.5 81zM788 674h373l82 418h-10q-5 31 -10.5 48.5t-19 42.5t-40.5 37.5t-67 12.5q-50 0 -92.5 -26t-71.5 -67t-53.5 -98.5t-39 -112t-26.5 -116.5z" />
    <glyph glyph-name="f_b" unicode="fb" horiz-adv-x="1316" 
d="M756 -23q-23 0 -75 2.5t-83 2.5l127 636h-420l-121 -692q-24 -137 -70.5 -235.5t-108 -152t-126.5 -77.5t-139 -24q-120 0 -211 55l31 148h34q49 -162 179 -162q36 0 68 13.5t57 33t48 54t39 65t32 78t25.5 80t20.5 84t16 77.5t13 72l103 583h-144v56h154
q40 289 146.5 442.5t275.5 153.5q83 0 182 -37l27 35h34l-18 -88q19 8 72 39h32l-133 -623l4 -4q115 104 220 104q92 0 158.5 -76t66.5 -180q0 -60 -21 -123.5t-65 -124.5t-104 -109t-145 -77t-181 -29zM817 1081h-22q-30 148 -170 148q-91 0 -158.5 -80t-95.5 -215
l-56 -260h420zM823 526l-104 -491q43 -6 72 -6q168 0 264 101.5t96 275.5q0 94 -44.5 151t-119.5 57q-42 0 -76.5 -19.5t-87.5 -68.5z" />
    <glyph glyph-name="f_f_b" unicode="ffb" horiz-adv-x="1748" 
d="M1188 -23q-23 0 -75 2.5t-83 2.5l125 634h-375l-98 -526q-23 -124 -34.5 -180t-36 -132t-56.5 -132q-40 -72 -105 -121t-126 -68.5t-117 -19.5q-116 0 -203 67l19 64q-76 -67 -136 -99t-145 -32q-106 0 -213 67l31 146h32q50 -162 168 -162q52 0 95 20.5t75 62.5t56 88
t43.5 116t32 126t26.5 136l107 579h-150l12 58h148l10 59q40 201 88 291q33 62 75.5 109t81 72.5t81 41t71.5 19.5t58 4q65 0 135 -27l18 25h35l-35 -158q138 158 293 158q73 0 129 -25l27 25h28l-14 -88q42 17 64 32h36l-131 -616l5 -4q115 104 219 104q92 0 158.5 -76
t66.5 -180q0 -60 -21 -123.5t-65 -124.5t-104 -109t-145 -77t-181 -29zM559 43l105 573h-355l-94 -520q-36 -202 -60.5 -281t-86.5 -186q54 -139 170 -139q37 0 69 12.5t57 29.5t48 50.5t39 60.5t31.5 74.5t24.5 78t21 85t16.5 81.5t14.5 81zM813 813l-25 -139h377l84 418
h-10q-5 28 -11.5 48t-21 44t-42.5 36.5t-68 12.5q-50 0 -92.5 -26t-71.5 -67t-53.5 -98.5t-39 -112t-26.5 -116.5zM322 674h352l12 71q19 106 40 175t36.5 99.5t44.5 74.5h-25q-1 20 -5.5 38t-18 44.5t-44.5 42.5t-77 16q-47 0 -91 -24.5t-86 -76.5t-74.5 -143.5
t-49.5 -214.5zM1255 526l-104 -491q43 -6 72 -6q168 0 264 101.5t96 275.5q0 94 -44.5 151t-119.5 57q-42 0 -76.5 -19.5t-87.5 -68.5z" />
    <glyph glyph-name="f_h" unicode="fh" horiz-adv-x="1347" 
d="M504 35q56 0 77.5 27t41.5 122l90 434h-408l-121 -692q-24 -137 -70.5 -235.5t-108 -152t-126.5 -77.5t-139 -24q-120 0 -211 55l31 148h34q49 -162 179 -162q36 0 68 13.5t57 33t48 54t39 65t32 78t25.5 80t20.5 84t16 77.5t13 72l103 583h-144v56h154
q40 289 146.5 442.5t275.5 153.5q83 0 182 -37l27 35h34l-18 -88q19 8 72 39h32l-133 -639l4 -5q121 121 238 121q95 0 149 -74t29 -194l-61 -301q-11 -50 1.5 -68t65.5 -24l-8 -35h-289l9 35q55 6 74.5 33t35.5 104l57 266q18 82 -11 129t-105 47q-52 0 -98 -27t-105 -91
l-78 -379q-9 -47 8 -64.5t70 -17.5l-8 -35h-330l8 35h25zM371 934l-56 -260h408l86 407h-23q-15 76 -54 112t-107 36q-91 0 -158.5 -80t-95.5 -215z" />
    <glyph glyph-name="f_f_h" unicode="ffh" horiz-adv-x="1779" 
d="M938 35q56 0 77.5 27t41.5 122l88 432h-365l-98 -526q-23 -124 -34.5 -180t-36 -132t-56.5 -132q-40 -72 -105 -121t-126 -68.5t-117 -19.5q-116 0 -203 67l19 64q-76 -67 -136 -99t-145 -32q-106 0 -213 67l31 146h32q50 -162 168 -162q52 0 95 20.5t75 62.5t56 88
t43.5 116t32 126t26.5 136l107 579h-150l12 58h148l10 59q40 201 88 291q33 62 75.5 109t81 72.5t81 41t71.5 19.5t58 4q65 0 135 -27l18 25h35l-35 -158q138 158 293 158q73 0 129 -25l27 25h28l-14 -88q42 17 64 32h36l-131 -632l5 -5q121 121 237 121q95 0 149 -74
t29 -194l-61 -301q-11 -50 1.5 -68t65.5 -24l-8 -35h-289l9 35q55 6 74.5 33t35.5 104l58 266q18 82 -11.5 129t-105.5 47q-52 0 -98 -27t-105 -91l-78 -379q-9 -47 8 -64.5t70 -17.5l-8 -35h-328l8 35h25zM559 43l105 573h-355l-94 -520q-36 -202 -60.5 -281t-86.5 -186
q54 -139 170 -139q37 0 69 12.5t57 29.5t48 50.5t39 60.5t31.5 74.5t24.5 78t21 85t16.5 81.5t14.5 81zM813 813l-25 -139h369l86 418h-10q-5 31 -10.5 48.5t-19 42.5t-40.5 37.5t-67 12.5q-50 0 -92.5 -26t-71.5 -67t-53.5 -98.5t-39 -112t-26.5 -116.5zM322 674h352l12 71
q19 106 40 175t36.5 99.5t44.5 74.5h-25q-1 20 -5.5 38t-18 44.5t-44.5 42.5t-77 16q-47 0 -91 -24.5t-86 -76.5t-74.5 -143.5t-49.5 -214.5z" />
    <glyph glyph-name="f_j" unicode="fj" horiz-adv-x="954" 
d="M809 979q27 0 46 -19.5t19 -46.5q0 -28 -18.5 -47.5t-46.5 -19.5t-48 19.5t-20 47.5q0 26 20 46t48 20zM502 -340l182 850q16 60 8 84t-61 24h-328l-88 -536q-35 -217 -81 -339t-120 -196q-47 -47 -119.5 -78.5t-148.5 -31.5q-149 0 -217 55l31 141h34q15 -70 61 -112.5
t105 -42.5q111 0 190.5 113.5t117.5 326.5l125 700h-150l12 56h150q49 297 150 446.5t276 149.5q77 0 176 -37l20 35h35l-39 -187h-35q-27 148 -170 148q-39 0 -69.5 -12.5t-65.5 -47.5q-63 -63 -99 -181t-69 -314h373q56 0 119 18h33l-222 -1040q-25 -116 -86 -165.5
t-157 -49.5q-92 0 -154 37l6 32q49 -24 101 -24q73 0 112.5 40.5t61.5 137.5z" />
    <glyph glyph-name="f_f_j" unicode="ffj" horiz-adv-x="1390" 
d="M317 674h359l12 67q19 103 43 179t40 106.5t38 63.5h-25q-1 14 -3 27.5t-11 36t-23.5 38t-42.5 27.5t-65 12q-43 0 -81 -19.5t-65 -48t-52 -74t-39.5 -82t-29.5 -89.5t-21.5 -80t-14.5 -68zM561 39l105 577h-357l-94 -524q-39 -214 -60.5 -286t-86.5 -183
q55 -139 172 -139q177 0 261 275q28 92 60 280zM1245 975q28 0 47 -19t19 -47t-19 -46.5t-47 -18.5t-46.5 18.5t-18.5 46.5q0 27 19 46.5t46 19.5zM1067 616h-289l-94 -528q-23 -130 -35 -188.5t-37 -129t-61 -128.5q-63 -100 -158.5 -152.5t-183.5 -52.5q-113 0 -205 67
l21 62q-142 -129 -283 -129q-39 0 -103.5 15.5t-109.5 51.5l31 144h32q20 -85 70 -123.5t102 -38.5q77 0 138.5 56.5t91.5 121.5q50 111 96 375l103 577h-146l10 58h148l10 59q6 35 12 65.5t23 88.5t38 104.5t57.5 101t80 91t107 61.5t137.5 25q65 0 135 -27l16 25h35
l-35 -154q133 152 307 152q52 0 119 -23l21 25h32l-32 -178h-33q-1 14 -3 27t-11 35t-22.5 37.5t-40.5 27.5t-62 12q-61 0 -111 -43t-83 -114t-52.5 -134.5t-32.5 -132.5l-26 -131h335q56 0 119 18h33l-221 -1040q-25 -116 -86.5 -165.5t-157.5 -49.5q-92 0 -154 37l7 32
q50 -24 100 -24q73 0 112.5 40.5t61.5 137.5l182 850q16 60 7 83t-62 23z" />
    <glyph glyph-name="f_k" unicode="fk" horiz-adv-x="1232" 
d="M475 0l8 35h25q56 0 77.5 27t41.5 122l92 434h-414l-121 -692q-24 -137 -70.5 -235.5t-108 -152t-126.5 -77.5t-139 -24q-120 0 -211 55l31 148h34q49 -162 179 -162q36 0 68 13.5t57 33t48 54t39 65t32 78t25.5 80t20.5 84t16 77.5t13 72l103 583h-144v56h154
q40 289 146.5 442.5t275.5 153.5q83 0 182 -37l27 35h34l-18 -88q19 8 72 39h32l-133 -627l4 -4q129 108 246 108q55 0 94 -32t39 -76q0 -62 -73.5 -126.5t-221.5 -117.5l158 -225q35 -51 59 -67t68 -17l-6 -35h-172l-252 326l-37 -176q-13 -66 1.5 -91t78.5 -24l-6 -35
h-328zM729 674l88 407h-22q-30 148 -170 148q-91 0 -158.5 -80t-95.5 -215l-56 -260h414zM813 543l-43 -199q151 35 233 88t82 115q0 33 -24 50t-64 17q-85 0 -184 -71z" />
    <glyph glyph-name="f_f_k" unicode="ffk" horiz-adv-x="1660" 
d="M322 674h352l12 71q19 106 40 175t36.5 99.5t44.5 74.5h-25q-1 20 -5.5 38t-18 44.5t-44.5 42.5t-77 16q-47 0 -91 -24.5t-86 -76.5t-74.5 -143.5t-49.5 -214.5zM559 43l105 573h-355l-94 -520q-36 -202 -60.5 -281t-86.5 -186q54 -139 170 -139q37 0 69 12.5t57 29.5
t48 50.5t39 60.5t31.5 74.5t24.5 78t21 85t16.5 81.5t14.5 81zM1300 1268l-14 -86q11 4 66 37h32l-133 -627l4 -4q129 108 246 108q55 0 94 -32t39 -76q0 -62 -73.5 -126.5t-221.5 -117.5l158 -225q35 -51 59 -67t68 -17l-6 -35h-172l-252 326l-37 -176q-13 -66 1.5 -90.5
t78.5 -24.5l-6 -35h-328l8 35h25q56 0 77.5 27t41.5 122l92 432h-367l-98 -526q-23 -124 -34.5 -180t-36 -132t-56.5 -132q-40 -72 -105 -121t-126 -68.5t-117 -19.5q-116 0 -203 67l19 64q-76 -67 -136 -99t-145 -32q-106 0 -213 67l31 146h32q50 -162 168 -162
q52 0 95 20.5t75 62.5t56 88t43.5 116t32 126t26.5 136l107 579h-150l12 58h148l10 59q40 201 88 291q33 62 75.5 109t81 72.5t81 41t71.5 19.5t58 4q65 0 135 -27l18 25h35l-35 -158q138 158 293 158q73 0 129 -25l27 25h28zM1247 1092h-10q-5 29 -11 48t-20.5 43.5t-42 37
t-67.5 12.5q-50 0 -92.5 -26t-71.5 -67t-53.5 -98.5t-39 -112t-26.5 -116.5l-25 -139h369zM1241 543l-43 -199q151 35 233 88t82 115q0 33 -24 50t-64 17q-85 0 -184 -71z" />
    <glyph glyph-name="g_f" unicode="gf" horiz-adv-x="1300" 
d="M1303 674l-7 -56h-143l-113 -598q-37 -197 -74.5 -297t-117.5 -180q-31 -31 -57 -50.5t-73.5 -37.5t-101.5 -18q-113 0 -190 49q-83 -49 -211 -49q-136 0 -211.5 62t-75.5 153t88 177t232 153q-75 28 -114.5 87t-39.5 144q0 66 23 132t74.5 130t125.5 112.5t184.5 78.5
t243.5 30l-213 -1063q-8 -39 -30 -75q35 -80 116 -80q78 0 154 76q89 89 141 372l129 692h-143l6 56h144l51 248q7 36 14.5 64t21.5 65.5t30.5 65.5t43.5 58t59 49.5t77.5 32t99.5 13.5q54 0 139 -27l6 25h41l-39 -185h-41q-14 146 -129 146q-77 0 -125 -61.5t-75 -188.5
l-64 -305h144zM408 -395l94 448l-4 4q-32 -27 -71 -47.5t-57.5 -27t-66.5 -21.5q-39 -15 -64 -26.5t-64 -38.5t-75 -64q-30 -30 -45.5 -68.5t-15.5 -70.5q0 -85 65.5 -147t153.5 -62q72 0 104.5 29t45.5 92zM516 123l105 491q-110 6 -193 -28t-127 -88q-42 -51 -64 -118.5
t-22 -129.5q0 -95 43 -149t117 -54q81 0 141 76z" />
    <glyph glyph-name="q_f" unicode="qf" horiz-adv-x="1298" 
d="M606 -522q88 0 164 76q89 89 141 372l129 692h-143l6 56h144l51 248q7 36 14.5 64t21.5 65.5t30.5 65.5t43.5 58t59 49.5t77.5 32t99.5 13.5q54 0 139 -27l6 25h41l-39 -185h-41q-14 146 -129 146q-77 0 -125 -61.5t-75 -188.5l-64 -305h143l-6 -56h-143l-113 -598
q-37 -197 -74.5 -297t-117.5 -180q-106 -106 -260 -106q-130 0 -213 55l125 594l-4 4q-60 -63 -110.5 -88t-115.5 -25q-95 0 -148.5 62t-53.5 172q0 221 221 373q89 61 212.5 90.5t245.5 21.5l-223 -1050q-8 -36 -8 -68q0 -100 92 -100zM612 625l-51 2q-166 6 -272 -103
q-103 -106 -103 -282q0 -80 41.5 -131.5t108.5 -51.5q52 0 90 21.5t86 77.5z" />
    <glyph glyph-name=".notdef" horiz-adv-x="1021" 
d="M25 0v1362h972v-1362h-972zM180 1266l332 -498l330 498h-662zM123 1178v-992q0 -1 82.5 123t164.5 249l83 124zM901 1178l-332 -496l332 -498v994zM842 98l-330 496l-332 -496h662z" />
    <glyph glyph-name=".null" horiz-adv-x="0" 
 />
    <glyph glyph-name="nonmarkingreturn" horiz-adv-x="682" 
 />
    <glyph glyph-name="space" unicode=" " horiz-adv-x="460" 
 />
    <glyph glyph-name="exclam" unicode="!" 
d="M242 248l120 870q7 50 30 75.5t52 25.5q43 0 63 -40.5t-1 -111.5l-230 -819h-34zM225 152q35 0 60.5 -25.5t25.5 -60.5q0 -36 -25.5 -62.5t-60.5 -26.5t-61.5 27t-26.5 62t26.5 60.5t61.5 25.5z" />
    <glyph glyph-name="quotedbl" unicode="&#x22;" horiz-adv-x="860" 
d="M715 739h-37l-55 324q-13 71 -13 113q0 41 24 67.5t62 26.5t62 -26.5t24 -67.5q0 -47 -12 -113zM385 739h-37l-55 324q-12 66 -12 113q0 41 24 67.5t62 26.5t62 -26.5t24 -67.5q0 -42 -13 -113z" />
    <glyph glyph-name="numbersign" unicode="#" horiz-adv-x="1368" 
d="M117 950h334l88 416h88l-88 -416h456l88 416h88l-88 -416h209v-88h-227l-88 -405h315v-88h-334l-88 -416h-88l88 416h-456l-88 -416h-88l88 416h-209v88h227l88 405h-315v88zM520 862l-88 -405h457l88 405h-457z" />
    <glyph glyph-name="dollar" unicode="$" horiz-adv-x="937" 
d="M623 1112l-95 -438q114 -139 155.5 -222.5t41.5 -164.5q0 -41 -9 -79.5t-33.5 -79.5t-61.5 -72t-98.5 -53.5t-139.5 -27.5l-51 -225h-47l49 225q-142 22 -230 101l54 248h32q-29 -260 154 -301l111 520q-98 110 -140.5 184t-42.5 166q0 117 84 199t232 82l10 45h47
l-10 -45q104 -13 190 -87l-47 -223h-30q-10 120 -36.5 172.5t-88.5 75.5zM489 715l89 407q-95 0 -148 -46.5t-53 -129.5q0 -61 24 -106t88 -125zM492 502l-103 -482q90 1 150.5 68t60.5 164q0 57 -24.5 114.5t-83.5 135.5z" />
    <glyph glyph-name="percent" unicode="%" horiz-adv-x="1536" 
d="M559 981q0 77 -30 127.5t-76 50.5q-50 0 -96 -52.5t-74.5 -139.5t-28.5 -181q0 -82 29 -134t73 -52q30 0 64 25.5t65.5 71.5t52.5 121.5t21 162.5zM666 979q0 -100 -48.5 -197.5t-126 -158t-157.5 -60.5t-133.5 62.5t-53.5 156.5q0 101 48 197.5t126.5 156.5t161.5 60
q77 0 130 -63t53 -154zM1309 1196h59l-1085 -1196h-60zM1442 406q0 -100 -48.5 -197.5t-126 -158t-157.5 -60.5t-133 62.5t-53 156.5q0 101 48 197.5t126.5 156.5t161.5 60q76 0 129 -63t53 -154zM1335 408q0 77 -30 127.5t-76 50.5q-50 0 -96 -52.5t-74.5 -139.5
t-28.5 -181q0 -81 29.5 -133.5t73.5 -52.5q30 0 64 25.5t65.5 71.5t52 121.5t20.5 162.5z" />
    <glyph glyph-name="ampersand" unicode="&#x26;" horiz-adv-x="1044" 
d="M1448 -63l-8 -39q-73 -54 -135 -76.5t-136 -22.5q-137 0 -263.5 78t-229.5 213q-141 -115 -287 -115q-125 0 -218 88.5t-93 206.5q0 95 70 183.5t200 148.5q-47 99 -47 193q0 124 79.5 205t199.5 81q88 0 146 -50.5t58 -127.5q0 -80 -70 -144.5t-231 -133.5
q26 -66 109.5 -197t142.5 -199q60 66 93.5 140.5t33.5 140.5q0 51 -19.5 74.5t-60.5 23.5q-12 0 -47 -6l-16 23q55 28 104 28q50 0 82.5 -31.5t32.5 -80.5q0 -75 -49.5 -179.5t-116.5 -171.5q103 -140 229 -224.5t250 -84.5q82 0 197 56zM414 864q0 -104 49 -205
q106 44 154.5 106.5t48.5 129.5q0 51 -35.5 86t-87.5 35q-55 0 -92 -43.5t-37 -108.5zM217 319q0 -107 73 -181.5t179 -74.5q91 0 174 68q-94 122 -154 215.5t-124 218.5q-69 -35 -108.5 -101t-39.5 -145z" />
    <glyph glyph-name="quotesingle" unicode="'" horiz-adv-x="438" 
d="M340 739h-37l-55 324q-12 66 -12 113q0 41 24 67.5t62 26.5t62 -26.5t24 -67.5q0 -42 -13 -113z" />
    <glyph glyph-name="parenleft" unicode="(" horiz-adv-x="532" 
d="M600 1196h45q-118 -127 -184.5 -215t-126.5 -199q-68 -126 -111 -307.5t-43 -339.5q0 -140 30 -253t109 -269h-36q-98 149 -155.5 324.5t-57.5 318.5q0 249 130 480.5t400 459.5z" />
    <glyph glyph-name="parenright" unicode=")" horiz-adv-x="532" 
d="M-61 -387h-45q143 153 228 275.5t136 256.5q102 270 102 529q0 139 -30.5 252t-110.5 270h37q99 -154 157 -329t58 -314q0 -249 -131 -480t-401 -460z" />
    <glyph glyph-name="asterisk" unicode="*" horiz-adv-x="937" 
d="M535 770q0 67 -25 146t-25 120q0 42 21 71.5t51 29.5q32 0 52 -28t20 -75q0 -42 -29 -122.5t-25 -141.5q32 11 62.5 35.5t54 50.5t47.5 50.5t52 40.5t57 16t49.5 -16.5t20.5 -39.5q0 -34 -20 -57.5t-56.5 -37.5t-75 -24.5t-87.5 -25t-83 -31.5q63 -35 211 -69
q47 -10 77.5 -41.5t30.5 -67.5q0 -25 -18 -42t-43 -17q-42 0 -85.5 31.5t-100 87t-93.5 81.5q2 -70 26 -158t24 -122q0 -39 -21.5 -67t-52.5 -28q-29 0 -49.5 27.5t-20.5 65.5q0 44 27 125.5t27 156.5q-42 -23 -82 -59.5t-64.5 -65t-57.5 -50t-69 -21.5q-31 0 -51.5 16.5
t-20.5 42.5q0 71 119 109q15 5 57 14t80 21t68 30q-34 22 -95 39.5t-106.5 28.5t-80.5 38.5t-35 69.5q0 28 16 45t43 17q42 0 79 -25t61 -56.5t62 -67t77 -50.5z" />
    <glyph glyph-name="plus" unicode="+" horiz-adv-x="1366" 
d="M176 582h494v493h88v-493h493v-88h-493v-494h-88v494h-494v88z" />
    <glyph glyph-name="comma" unicode="," horiz-adv-x="532" 
d="M31 -256l8 37q78 22 122 73.5t44 125.5q-88 17 -88 88q0 38 25 63t63 25q44 0 72 -35t28 -92q0 -101 -77 -181.5t-197 -103.5z" />
    <glyph glyph-name="hyphen" unicode="-" 
d="M537 375l-17 -76h-420l17 76h420z" />
    <glyph glyph-name="period" unicode="." horiz-adv-x="532" 
d="M221 152q35 0 60.5 -25.5t25.5 -60.5q0 -36 -25.5 -62.5t-60.5 -26.5t-61.5 27t-26.5 62t26.5 60.5t61.5 25.5z" />
    <glyph glyph-name="slash" unicode="/" horiz-adv-x="1024" 
d="M821 1219h94l-598 -1244h-94z" />
    <glyph glyph-name="zero" unicode="0" horiz-adv-x="937" 
d="M909 770q0 -187 -81 -372.5t-209.5 -303t-258.5 -117.5q-125 0 -208.5 123t-83.5 306q0 189 81.5 374.5t209.5 301.5t257 116q118 0 205.5 -120.5t87.5 -307.5zM770 786q0 163 -58 262t-153 99q-60 0 -122.5 -56.5t-113.5 -152.5t-83.5 -237t-32.5 -295q0 -182 60 -279.5
t136 -97.5q103 0 189 112.5t132 285t46 359.5z" />
    <glyph glyph-name="one" unicode="1" horiz-adv-x="937" 
d="M684 1202l-205 -1014q-18 -88 -1 -120.5t77 -32.5h37l-8 -35h-404l8 35h31q61 0 87 20.5t38 79.5l166 783q14 61 14 98q0 23 -12.5 37t-34.5 14q-21 0 -98 -20l8 36l266 119h31z" />
    <glyph glyph-name="two" unicode="2" horiz-adv-x="937" 
d="M737 104l-22 -104h-645l8 35q192 175 324.5 320t202 251.5t98 183t28.5 142.5q0 85 -50 137.5t-130 52.5q-126 0 -279 -166l-22 21q94 111 180.5 166t185.5 55q107 0 180.5 -66.5t73.5 -164.5q0 -87 -37.5 -175t-125 -194.5t-205.5 -220t-303 -273.5h538z" />
    <glyph glyph-name="three" unicode="3" horiz-adv-x="937" 
d="M330 1008l-25 24q71 78 161 122t181 44q97 0 161 -57.5t64 -145.5q0 -220 -319 -333v-5q112 -28 180 -109.5t68 -187.5q0 -158 -122.5 -270.5t-293.5 -112.5q-186 0 -336 160l25 25q78 -53 135 -74.5t125 -21.5q70 0 128 26t92.5 65t58.5 86.5t33 87t9 70.5t-9.5 61
t-33.5 63t-75 53t-123 20q-37 0 -72 -2l8 35q180 40 279.5 122.5t99.5 194.5q0 75 -46.5 123.5t-117.5 48.5q-56 0 -109 -25.5t-126 -86.5z" />
    <glyph glyph-name="four" unicode="4" horiz-adv-x="937" 
d="M909 391l-18 -82h-207l-66 -325h-126l63 325h-535l9 35l790 858h45l-164 -811h209zM692 1012l-569 -621h448l125 617z" />
    <glyph glyph-name="five" unicode="5" horiz-adv-x="937" 
d="M860 1174l-33 -82h-409l-111 -478q62 11 107 11q148 0 238.5 -80t90.5 -211q0 -155 -106.5 -256t-269.5 -101q-166 0 -293 109l20 29q128 -82 242 -82q54 0 100.5 22t76.5 55.5t51 75t30.5 78.5t9.5 68q0 107 -69.5 179.5t-176.5 72.5q-13 0 -104 -11l139 601h467z" />
    <glyph glyph-name="six" unicode="6" horiz-adv-x="937" 
d="M915 1200v-26q-207 -32 -357 -174t-273 -422l4 -5q127 168 289 168q108 0 183 -86.5t75 -212.5q0 -120 -59.5 -227.5t-159 -172.5t-209.5 -65q-130 0 -213.5 103.5t-83.5 263.5q0 153 67.5 305t177.5 268t257.5 193.5t301.5 89.5zM506 659q-111 0 -186.5 -99.5
t-75.5 -248.5q0 -71 19 -127.5t49.5 -89t64.5 -49t69 -16.5q111 0 183.5 108t72.5 260q0 118 -54 190t-142 72z" />
    <glyph glyph-name="seven" unicode="7" horiz-adv-x="937" 
d="M928 1174l-8 -37l-529 -1137h-139l602 1067h-438q-79 0 -120.5 -31t-84.5 -108h-37l78 246h676z" />
    <glyph glyph-name="eight" unicode="8" horiz-adv-x="937" 
d="M727 289q0 -132 -95.5 -222t-236.5 -90q-120 0 -195 66.5t-75 171.5q0 98 74.5 190.5t244.5 206.5q-73 105 -102 165t-29 122q0 114 103 206.5t229 92.5q98 0 161.5 -58t63.5 -147q0 -81 -68 -163t-224 -177q149 -219 149 -364zM424 967q0 -61 29.5 -124.5t101.5 -160.5
q103 62 157 134.5t54 148.5q0 73 -48.5 127.5t-113.5 54.5q-76 0 -128 -51.5t-52 -128.5zM610 242q0 74 -37 153t-108 178q-123 -86 -179.5 -172.5t-56.5 -187.5q0 -78 53 -131t128 -53q89 0 144.5 59t55.5 154z" />
    <glyph glyph-name="nine" unicode="9" horiz-adv-x="937" 
d="M102 -23v27q205 32 355.5 174.5t275.5 421.5l-4 4q-129 -168 -289 -168q-109 0 -183.5 87t-74.5 214q0 120 59.5 227t159 171.5t209.5 64.5q129 0 213 -102.5t84 -263.5q0 -153 -68 -305t-178.5 -268.5t-258.5 -194t-300 -89.5zM512 518q110 0 186 100.5t76 247.5
q0 133 -60 208t-143 75q-47 0 -91.5 -23t-81.5 -67t-60 -116.5t-23 -162.5q0 -119 54 -190.5t143 -71.5z" />
    <glyph glyph-name="colon" unicode=":" horiz-adv-x="532" 
d="M322 657q35 0 60.5 -25.5t25.5 -60.5t-25.5 -61.5t-60.5 -26.5t-62 26.5t-27 61.5t26.5 60.5t62.5 25.5zM221 152q35 0 60.5 -25.5t25.5 -60.5q0 -36 -25.5 -62.5t-60.5 -26.5t-61.5 27t-26.5 62t26.5 60.5t61.5 25.5z" />
    <glyph glyph-name="semicolon" unicode=";" horiz-adv-x="532" 
d="M31 -256l8 37q78 22 122 73.5t44 125.5q-88 17 -88 88q0 38 25 63t63 25q44 0 72 -35t28 -92q0 -101 -77 -181.5t-197 -103.5zM322 657q35 0 60.5 -25.5t25.5 -60.5t-25.5 -61.5t-60.5 -26.5t-62 26.5t-27 61.5t26.5 60.5t62.5 25.5z" />
    <glyph glyph-name="less" unicode="&#x3c;" horiz-adv-x="1366" 
d="M145 618v78l1076 453v-96l-959 -396l959 -395v-96z" />
    <glyph glyph-name="equal" unicode="=" horiz-adv-x="1366" 
d="M176 819h1075v-88h-1075v88zM176 356h1075v-88h-1075v88z" />
    <glyph glyph-name="greater" unicode="&#x3e;" horiz-adv-x="1366" 
d="M1221 618l-1076 -452v96l959 395l-959 396v96l1076 -453v-78z" />
    <glyph glyph-name="question" unicode="?" 
d="M178 246l41 188q3 16 8 45t8 41.5t11 30t20 29.5q20 20 72 53t94 60.5t76.5 73t34.5 95.5q0 72 -64 121t-157 49q-81 0 -168 -37l8 45q83 74 200 74q97 0 161.5 -78t64.5 -196q0 -160 -105 -265q-59 -59 -117.5 -90t-76.5 -49q-25 -25 -72 -190h-39zM160 152
q35 0 60.5 -25.5t25.5 -60.5q0 -36 -25.5 -62.5t-60.5 -26.5t-61.5 27t-26.5 62t26.5 60.5t61.5 25.5z" />
    <glyph glyph-name="at" unicode="@" horiz-adv-x="1884" 
d="M1458 950l-203 -704q-23 -81 2 -121.5t80 -40.5q65 0 139 48.5t139.5 131t108.5 207t43 260.5q0 286 -181 461.5t-474 175.5q-163 0 -305 -56t-243 -151.5t-174 -220t-108.5 -263t-35.5 -280.5q0 -119 32 -233t98 -215t158.5 -177t222.5 -120.5t281 -44.5q271 0 493 153
t314 404h56q-98 -277 -334 -443.5t-531 -166.5q-252 0 -450.5 114.5t-309 319t-110.5 463.5q0 202 73 381.5t198.5 308t301.5 203.5t373 75q210 0 369.5 -83.5t247.5 -241.5t88 -369q0 -147 -47.5 -281t-123 -226.5t-170.5 -147t-188 -54.5q-166 0 -166 142q0 15 25 149
l-4 4q-112 -147 -201.5 -215.5t-175.5 -68.5q-88 0 -141.5 62.5t-53.5 166.5q0 123 59 253.5t144 226.5t180.5 158t167.5 62q74 0 114 -31.5t60 -107.5h4l23 115zM838 135q88 0 188.5 100.5t168 247.5t67.5 273q0 74 -37.5 114.5t-106.5 40.5q-63 0 -136.5 -64.5t-132 -159
t-97.5 -207.5t-39 -204q0 -64 34 -102.5t91 -38.5z" />
    <glyph glyph-name="A" unicode="A" horiz-adv-x="960" 
d="M768 1161v-1009q0 -74 22.5 -95.5t94.5 -21.5l-8 -35h-359l-6 35q70 0 92.5 20.5t22.5 85.5v332h-260l-117 -199q-92 -158 -92 -198q0 -23 20 -32t70 -9l-8 -35h-297l8 35q67 6 105.5 36.5t90.5 116.5l584 973h37zM627 518v395h-4l-228 -395h232z" />
    <glyph glyph-name="B" unicode="B" horiz-adv-x="937" 
d="M23 0l8 35q68 5 99 34.5t48 108.5l195 924q-44 -15 -73 -32.5t-81 -61.5l-35 24q129 129 322 129q151 0 248.5 -83t97.5 -212q0 -94 -66 -167.5t-184 -94.5v-4q121 -25 191.5 -100t70.5 -178q0 -64 -26.5 -121.5t-75.5 -102.5t-126.5 -71.5t-172.5 -26.5h-440zM514 1102
l-100 -473q18 -4 78 -4q100 0 162.5 67.5t62.5 173.5q0 104 -55.5 168.5t-147.5 67.5zM403 573l-94 -438q-8 -41 14.5 -65.5t88.5 -24.5q152 0 226.5 83t74.5 210q0 122 -85 192t-225 43z" />
    <glyph glyph-name="C" unicode="C" horiz-adv-x="1003" 
d="M1024 1180l-43 -203h-35q-27 63 -89.5 101t-127.5 38q-78 0 -156.5 -45.5t-142 -126.5t-103.5 -205.5t-40 -269.5q0 -203 90.5 -312.5t222.5 -109.5q192 0 322 215l28 -33q-86 -132 -182.5 -193t-220.5 -61q-180 0 -296 136.5t-116 351.5q0 131 50.5 259t131.5 224
t190 155.5t220 59.5q48 0 120.5 -16.5t80.5 -16.5q27 0 61 52h35z" />
    <glyph glyph-name="D" unicode="D" horiz-adv-x="1193" 
d="M18 0l9 35q65 0 96.5 31.5t48.5 111.5l193 907q-81 -17 -172 -88l-19 27q73 72 158 104.5t196 32.5q266 0 436.5 -163.5t170.5 -419.5q0 -111 -40 -213t-116.5 -184.5t-200 -131.5t-276.5 -49h-484zM510 1102l-203 -952q-10 -48 29.5 -76.5t132.5 -28.5q101 0 183 22.5
t136.5 62t94 88.5t60.5 108t30.5 114t9.5 113q0 82 -18 159t-56 147t-93 122.5t-133.5 85t-172.5 35.5z" />
    <glyph glyph-name="E" unicode="E" horiz-adv-x="927" 
d="M797 711l-56 -265h-39q-9 66 -37.5 88.5t-103.5 22.5h-158l-77 -369q-25 -133 88 -133h131q124 0 183.5 37.5t117.5 161.5h47l-96 -254h-758l8 35q65 6 91.5 34t43.5 109l170 803q12 62 -9 91t-91 30l6 35h664l-39 -185h-35q0 82 -20 105.5t-99 23.5h-211l-102 -469h225
q45 0 69.5 20.5t47.5 78.5h39z" />
    <glyph glyph-name="F" unicode="F" horiz-adv-x="831" 
d="M786 713l-55 -264h-35q-13 67 -42.5 88.5t-106.5 21.5h-164l-94 -446q-8 -42 20.5 -60t81.5 -18l-6 -35h-367l7 35q63 1 90 32.5t47 122.5l168 789q13 61 -2.5 92t-77.5 31h-21l9 35h663l-39 -183h-35q6 81 -12 104t-94 23h-225l-103 -467h205q69 0 100 19.5t54 79.5h34z
" />
    <glyph glyph-name="G" unicode="G" horiz-adv-x="1093" 
d="M946 315l-61 -292q-170 -48 -297 -48q-212 0 -340.5 131.5t-128.5 348.5q0 155 59.5 290t154.5 224.5t212.5 140.5t234.5 51q56 0 111 -10q87 -10 92 -10q21 0 31.5 9t25.5 40h35l-47 -223h-35q10 67 -62.5 108t-164.5 41q-90 0 -176.5 -41.5t-158.5 -119t-116.5 -203.5
t-44.5 -281q0 -217 94.5 -334t243.5 -117q68 0 142 35l61 289q11 51 -8 75.5t-76 24.5h-33l6 35h383l-6 -35q-60 -3 -88 -30.5t-43 -98.5z" />
    <glyph glyph-name="H" unicode="H" horiz-adv-x="1259" 
d="M1329 1137l-8 -35q-70 -11 -93 -40t-38 -104l-172 -806q-14 -63 1 -87t77 -30l-9 -35h-352l8 35q40 4 64 14t38.5 31.5t21 42t15.5 60.5q2 9 3 14l82 381h-572l-90 -426q-14 -63 4 -88t84 -29l-8 -35h-369l9 35q69 0 98 30t47 115l172 807q11 57 -6.5 84.5t-85.5 30.5
l8 35h358l-8 -35q-38 -6 -61.5 -16t-36 -28.5t-18 -35.5t-12.5 -49q0 -3 -0.5 -5t-1 -5t-1.5 -5l-69 -325h571l76 354q12 59 -6.5 85.5t-79.5 29.5l8 35h352z" />
    <glyph glyph-name="I" unicode="I" horiz-adv-x="532" 
d="M596 1137l-6 -35q-52 -12 -76 -43t-41 -111l-166 -774q-19 -69 -5 -102.5t79 -36.5l-8 -35h-355l9 35q69 6 95.5 32.5t43.5 106.5l166 774q20 100 2.5 127t-92.5 27l8 35h346z" />
    <glyph glyph-name="J" unicode="J" horiz-adv-x="598" 
d="M668 1137l-6 -35q-62 -9 -90.5 -40t-45.5 -108l-211 -991q-25 -113 -70.5 -198t-103.5 -134t-121.5 -72.5t-132.5 -23.5q-122 0 -188 57l22 23q57 -35 125 -35q113 0 200 94t128 289l211 991q22 78 5.5 111t-97.5 37l8 35h367z" />
    <glyph glyph-name="K" unicode="K" horiz-adv-x="1067" 
d="M504 659l297 -460q58 -89 110 -126.5t131 -37.5l-6 -35h-422l9 35q43 2 62.5 13.5t19.5 37.5q0 5 -1 10.5t-5 13.5t-6.5 13.5t-9.5 16.5t-11 16.5t-14 20.5t-15 22l-264 397l-88 -418q-20 -72 -6.5 -104.5t86.5 -38.5l-6 -35h-353l6 35q67 9 90.5 35.5t41.5 107.5
l163 774q20 76 4.5 106t-92.5 44l8 35h355l-8 -35q-61 -10 -85.5 -43t-39.5 -107l-72 -331l4 -5l393 336q41 35 56.5 55.5t15.5 39.5q0 23 -18.5 35t-63.5 20l8 35h334l-8 -35q-58 -10 -136.5 -58.5t-142.5 -105.5z" />
    <glyph glyph-name="L" unicode="L" horiz-adv-x="831" 
d="M780 176l-55 -176h-711l9 35q66 8 92 35t43 106l164 778q23 80 7 114t-102 34l6 35h371l-6 -35q-63 -4 -89.5 -33.5t-45.5 -114.5l-168 -786q-26 -123 113 -123h67q126 0 184 28.5t89 102.5h32z" />
    <glyph glyph-name="M" unicode="M" horiz-adv-x="1366" 
d="M1292 950l-164 -774q-10 -44 -11.5 -74.5t20.5 -47t75 -19.5l-8 -35h-366l8 35q70 0 100 34.5t43 106.5l160 754l-4 4l-592 -934h-37l31 930l-6 4l-330 -758q-34 -68 -23 -104.5t88 -36.5l-8 -35h-260l8 35q47 0 82.5 40.5t75.5 131.5l358 817q-15 39 -48 55.5t-107 22.5
l8 35h301l-29 -879l5 -4l557 883h206l-8 -35q-66 -14 -87 -43.5t-38 -108.5z" />
    <glyph glyph-name="N" unicode="N" horiz-adv-x="1236" 
d="M233 174l170 809q-50 69 -88 94t-96 25h-37l6 35h281l504 -926l164 772q26 119 -78 119h-37l6 35h285l-6 -35q-59 -6 -87.5 -37t-43.5 -104l-205 -961h-43l-488 922h-4l-155 -748q-16 -76 4.5 -107.5t103.5 -31.5l-8 -35h-283l8 35q54 3 83 34.5t44 104.5z" />
    <glyph glyph-name="O" unicode="O" horiz-adv-x="1153" 
d="M1128 745q0 -102 -27.5 -209.5t-82 -207.5t-127 -179t-171 -126.5t-206.5 -47.5q-167 0 -271 116t-104 302q0 132 47.5 269t127 247.5t195 181t241.5 70.5q172 0 275 -113.5t103 -302.5zM977 772q0 152 -73 248t-189 96q-75 0 -143 -45t-118 -120.5t-87.5 -172
t-56.5 -202.5t-19 -209q0 -157 72 -252t192 -95q84 0 156 51t119.5 132t81.5 182t49.5 200t15.5 187z" />
    <glyph glyph-name="P" unicode="P" horiz-adv-x="876" 
d="M424 549l-80 -369q-10 -47 -9.5 -79.5t23.5 -49t72 -16.5h25l-6 -35h-377l6 35q55 4 81.5 34.5t43.5 110.5l196 922q-60 -12 -106 -41.5t-111 -95.5l-24 14q129 182 395 182q163 0 258.5 -79t95.5 -214q0 -139 -102.5 -238.5t-245.5 -99.5q-57 0 -135 19zM541 1102
l-109 -512q47 -15 86 -15q107 0 172.5 75.5t65.5 199.5q0 116 -57 182.5t-158 69.5z" />
    <glyph glyph-name="Q" unicode="Q" horiz-adv-x="1153" 
d="M139 393q0 104 28.5 213t84 208t129 177t171 124t202.5 46q172 0 273 -114.5t101 -309.5q0 -159 -62 -313.5t-171 -269t-240 -156.5q201 -192 348 -275t277 -83q197 0 344 129l25 -25q-94 -92 -210 -145.5t-225 -53.5q-165 0 -366 118t-367 312q-157 17 -249.5 130
t-92.5 288zM291 367q0 -157 72 -252t192 -95q80 0 150.5 48.5t119 127t84 177.5t52 201.5t16.5 197.5q0 152 -73 248t-189 96q-95 0 -177.5 -70.5t-135 -181.5t-82 -241.5t-29.5 -255.5z" />
    <glyph glyph-name="R" unicode="R" horiz-adv-x="1044" 
d="M428 592l-88 -416q-19 -79 -0.5 -109.5t94.5 -31.5l-6 -35h-362l6 35q34 4 56.5 14t36.5 29.5t20.5 40.5t13.5 57l194 914q-51 -8 -96 -37.5t-96 -89.5l-31 18q124 180 360 180q160 0 261.5 -79t101.5 -203q0 -103 -62.5 -172.5t-181.5 -98.5v-4q66 -19 113 -81.5
t104 -205.5q12 -31 26.5 -67t22 -56.5t17.5 -45t16 -37t14 -27.5t14.5 -21.5t14.5 -13.5t17 -10t20 -4l-6 -35h-299l6 35q78 0 78 51q0 33 -86 227.5t-125 233.5q-47 47 -133 47q-21 0 -35 -2zM537 1102l-99 -467q38 -6 62 -6q117 0 179 67t62 193q0 93 -51.5 147t-152.5 66
z" />
    <glyph glyph-name="S" unicode="S" horiz-adv-x="831" 
d="M811 1163l-47 -221h-37q7 59 -21 100.5t-67.5 57.5t-81.5 16q-87 0 -143 -61.5t-56 -130.5q0 -78 37.5 -145.5t134.5 -178.5q115 -134 139 -170q45 -65 49 -144q1 -14 1 -30q0 -122 -95 -201.5t-241 -79.5q-65 0 -137.5 20.5t-83.5 20.5q-19 0 -28.5 -9.5t-18.5 -35.5
h-41l47 219h39q26 -77 93 -123.5t153 -46.5q77 0 130.5 56.5t53.5 138.5q0 58 -39.5 124t-132.5 169t-131.5 173.5t-38.5 154.5q0 134 94.5 229.5t226.5 95.5q59 0 114.5 -17.5t64.5 -17.5q3 0 5 0.5t4 2t3 3t3 5t3 6.5t3.5 9t4.5 11h37z" />
    <glyph glyph-name="T" unicode="T" horiz-adv-x="1003" 
d="M745 1081l-192 -909q-15 -69 -10 -90q11 -43 92 -47l-6 -35h-361l6 35q67 4 96 37t42 100l192 909h-188q-76 0 -115.5 -22t-67.5 -80h-36l43 199h36q15 -27 41 -35q30 -6 111 -6h496q72 0 106.5 9t54.5 32h37l-43 -199h-35q-7 63 -30.5 82.5t-89.5 19.5h-179z" />
    <glyph glyph-name="U" unicode="U" horiz-adv-x="1216" 
d="M885 313l135 645q9 46 10 78t-23.5 49t-80.5 17l8 35h369l-9 -35q-67 -10 -92 -40.5t-45 -125.5l-113 -537q-45 -213 -175.5 -318.5t-301.5 -105.5q-84 0 -157 28t-126 83.5t-72.5 137t1.5 188.5l117 546q10 48 9.5 79t-25 46.5t-81.5 18.5l9 35h370l-8 -35
q-65 -3 -90.5 -35.5t-46.5 -130.5l-117 -549q-20 -108 -7.5 -189.5t75 -129.5t168.5 -48q103 0 184 73.5t115 219.5z" />
    <glyph glyph-name="V" unicode="V" horiz-adv-x="964" 
d="M1100 1137l-8 -35q-55 -3 -93.5 -43.5t-93.5 -136.5l-547 -951h-30l24 1026q2 56 -23 80.5t-83 24.5l8 35h352l-8 -35q-73 -3 -90.5 -33t-20.5 -147l-16 -670l4 -4l354 631q64 116 64 155q0 35 -24 51.5t-78 16.5l8 35h301z" />
    <glyph glyph-name="W" unicode="W" horiz-adv-x="1433" 
d="M1417 895l-528 -924h-33l27 953l-4 4l-547 -957h-33l25 996q2 81 -18.5 108t-90.5 27l6 35h346l-6 -35q-54 -6 -76 -22.5t-22 -51.5l-23 -776l4 -4l437 766q0 48 -24.5 67t-80.5 21l6 35h344l-6 -35q-63 -4 -81.5 -25t-20.5 -84l-21 -741l4 -4l359 637q61 109 61 147
q0 37 -25 53.5t-79 16.5l6 35h301l-6 -35q-54 -1 -93 -43.5t-108 -163.5z" />
    <glyph glyph-name="X" unicode="X" horiz-adv-x="1085" 
d="M666 631l118 -426q28 -98 61 -131.5t107 -38.5l-6 -35h-352l6 35q53 0 64 24.5t-7 81.5l-100 357l-262 -326q-28 -34 -42 -55.5t-19 -41.5t11 -29.5t52 -10.5l-6 -35h-291l6 35q71 0 128 36.5t134 133.5l277 346l-107 377q-26 95 -60 132.5t-110 41.5l8 35h367l-8 -35
q-44 -5 -63 -20.5t-16.5 -38t9.5 -50.5l88 -307l211 262q58 72 58 111q0 22 -12.5 32t-43.5 11l8 35h283l-8 -35q-70 -6 -106 -27.5t-95 -95.5z" />
    <glyph glyph-name="Y" unicode="Y" horiz-adv-x="937" 
d="M643 629l-92 -451q-16 -81 -10 -103q9 -35 74 -39q11 -1 24 -1l-8 -35h-363l8 35q60 8 87.5 31.5t39.5 83.5l95 454l-164 393q-26 64 -49.5 82t-85.5 23l8 35h338l-8 -35q-27 -1 -43 -8t-22.5 -17t-5 -27t6.5 -33t16 -42l127 -307l228 307q16 21 21.5 29t11.5 22t6 27
q0 27 -20 38t-70 11l8 35h293l-9 -35q-56 0 -93 -29t-89 -98z" />
    <glyph glyph-name="Z" unicode="Z" horiz-adv-x="1044" 
d="M1094 1092l-861 -1047h408q115 0 168.5 29.5t89.5 118.5h35l-41 -193h-854l8 35l877 1057h-371q-72 0 -116 -17t-69.5 -51t-48.5 -98h-34l45 211h772z" />
    <glyph glyph-name="bracketleft" unicode="[" 
d="M37 -365l313 1526h342l-8 -35h-100q-77 0 -101 -17t-39 -83l-12 -59l-244 -1143l-10 -45l-8 -62q0 -47 72 -47h133l-8 -35h-330z" />
    <glyph glyph-name="backslash" unicode="\" horiz-adv-x="1024" 
d="M301 1219l598 -1244h-94l-598 1244h94z" />
    <glyph glyph-name="bracketright" unicode="]" 
d="M608 1161l-315 -1526h-342l8 35h100q76 0 100.5 17.5t39.5 83.5l12 59l246 1143l8 45l8 61q0 47 -70 47h-133l6 35h332z" />
    <glyph glyph-name="asciicircum" unicode="^" horiz-adv-x="864" 
d="M481 1386l426 -716h-92l-350 585l-350 -585h-95l431 716h30z" />
    <glyph glyph-name="underscore" unicode="_" horiz-adv-x="1024" 
d="M-18 -154h1060v-102h-1060v102z" />
    <glyph glyph-name="grave" unicode="`" horiz-adv-x="681" 
d="M291 1219h112l144 -394h-41z" />
    <glyph glyph-name="a" unicode="a" horiz-adv-x="831" 
d="M752 696l-109 -503q-14 -68 5 -99t81 -24l-8 -35l-240 -53l29 131l-4 4q-108 -140 -240 -140q-96 0 -146 54t-50 157q0 71 24.5 142t76.5 137t124 117t175.5 81.5t223.5 30.5h58zM616 621q-98 12 -181.5 -17t-137 -86.5t-83.5 -134t-30 -160.5q0 -78 37 -121t103 -43
q53 0 98.5 28t99.5 91z" />
    <glyph glyph-name="b" unicode="b" horiz-adv-x="747" 
d="M387 1219l-133 -623l4 -4q115 104 219 104q92 0 158.5 -76t66.5 -180q0 -60 -21 -123.5t-65 -124.5t-104 -109t-145 -77t-181 -29q-23 0 -74.5 2.5t-82.5 2.5l211 1060q9 51 -12.5 71t-94.5 20l6 34l207 52h41zM254 526l-104 -491q44 -6 71 -6q168 0 264.5 101.5
t96.5 275.5q0 94 -44.5 151t-119.5 57q-42 0 -76.5 -19.5t-87.5 -68.5z" />
    <glyph glyph-name="c" unicode="c" horiz-adv-x="618" 
d="M610 700l-22 -196h-29q3 64 -33.5 98.5t-95.5 34.5q-98 0 -172 -119t-74 -278q0 -88 37.5 -134.5t106.5 -46.5q102 0 209 91l22 -25q-79 -76 -149 -112t-142 -36q-91 0 -148 67.5t-57 176.5q0 106 56.5 217t147.5 184.5t182 73.5q48 0 69 -6q5 -1 17 -3.5t18 -2.5
q7 0 12.5 1t9 3t5.5 3.5t4.5 4.5t3.5 4h22z" />
    <glyph glyph-name="d" unicode="d" horiz-adv-x="811" 
d="M838 1219l-215 -1016q-18 -69 -7 -101t66 -32q16 0 68 6l-11 -41l-274 -53l20 94q-74 -55 -123.5 -77t-97.5 -22q-80 0 -139 72t-59 170q0 54 16 113t56 124.5t100 117t157.5 83.5t218.5 29l68 320q16 63 5 92.5t-60 29.5q-45 0 -74 -2l10 41l234 52h41zM604 639h-90
q-76 0 -136 -26.5t-95 -67t-58 -93.5t-31 -99.5t-8 -92.5q0 -86 44.5 -143.5t111.5 -57.5q75 0 154 70z" />
    <glyph glyph-name="e" unicode="e" horiz-adv-x="661" 
d="M184 301q-14 -116 32.5 -172.5t129.5 -56.5q118 0 229 145l21 -27q-78 -119 -146 -166t-163 -47q-106 0 -163.5 59.5t-57.5 168.5q0 122 60.5 236.5t158.5 184.5t202 70q62 0 98 -31t36 -85q0 -91 -121 -170.5t-316 -108.5zM193 338q142 26 224.5 78t82.5 127
q0 31 -26 55.5t-60 24.5q-56 0 -107 -50t-80 -114.5t-34 -120.5z" />
    <glyph glyph-name="f" unicode="f" horiz-adv-x="491" 
d="M494 674l-7 -56h-143l-113 -598q-37 -197 -74.5 -297t-117.5 -180q-42 -42 -116.5 -74t-155.5 -32q-155 0 -238 55l31 143h34q14 -76 63.5 -116.5t115.5 -40.5q52 0 104 21t86 55q89 89 141 372l129 692h-143l6 56h144l51 248q7 36 14.5 64t21.5 65.5t30.5 65.5t43.5 58
t59 49.5t77.5 32t99.5 13.5q53 0 139 -27l6 25h41l-39 -185h-41q-14 146 -129 146q-77 0 -125 -61.5t-75 -188.5l-64 -305h144z" />
    <glyph glyph-name="g" unicode="g" horiz-adv-x="788" 
d="M745 696l-213 -1063q-14 -70 -63.5 -115.5t-112.5 -63t-141 -17.5q-136 0 -211.5 62t-75.5 153t88 177t232 153q-75 28 -114.5 87t-39.5 144q0 66 23 132t74.5 130t125.5 112.5t184.5 78.5t243.5 30zM516 123l105 491q-110 6 -193 -28t-127 -88q-42 -51 -64 -118.5
t-22 -129.5q0 -95 43 -149t117 -54q81 0 141 76zM408 -395l94 448l-4 4q-32 -27 -71 -47.5t-57.5 -27t-66.5 -21.5q-39 -15 -64 -26.5t-64 -38.5t-75 -64q-30 -30 -45.5 -68.5t-15.5 -70.5q0 -85 65.5 -147t153.5 -62q72 0 104.5 29t45.5 92z" />
    <glyph glyph-name="h" unicode="h" horiz-adv-x="854" 
d="M463 1219l-133 -639l4 -5q121 121 237 121q95 0 149.5 -74t29.5 -194l-62 -301q-11 -50 2 -68t66 -24l-8 -35h-289l8 35q55 6 75 33t36 104l57 266q18 82 -11.5 129t-105.5 47q-52 0 -98 -27t-105 -91l-77 -379q-9 -47 7.5 -64.5t69.5 -17.5l-8 -35h-278l8 35
q38 0 55.5 27t34.5 110l176 856q18 66 3 87.5t-95 21.5l6 30l205 52h41z" />
    <glyph glyph-name="i" unicode="i" horiz-adv-x="491" 
d="M399 692l-110 -524q-19 -91 -3 -112t105 -21l-6 -35h-360l8 35q75 0 95.5 16t35.5 88l80 371q12 46 2 72t-53 26q-3 0 -80 -10l8 41l237 53h41zM403 913q0 -28 -18.5 -47.5t-46.5 -19.5t-48 19.5t-20 47.5t20 47t48 19t46.5 -19t18.5 -47z" />
    <glyph glyph-name="j" unicode="j" horiz-adv-x="491" 
d="M397 694l-223 -1042q-25 -116 -86.5 -165.5t-157.5 -49.5q-91 0 -153 37l6 32q49 -24 100 -24q73 0 112.5 40.5t61.5 137.5l181 846q23 104 -52 104q-13 0 -28 -2t-34 -5.5t-28 -4.5l10 41l250 55h41zM346 979q28 0 47 -19t19 -47t-19 -47.5t-47 -19.5t-47.5 19.5
t-19.5 47.5t19.5 47t47.5 19z" />
    <glyph glyph-name="k" unicode="k" horiz-adv-x="747" 
d="M471 1219l-133 -627l4 -4q129 108 246 108q55 0 94 -32t39 -76q0 -62 -73.5 -126.5t-221.5 -117.5l158 -225q35 -51 59 -67t68 -17l-6 -35h-173l-251 326l-37 -176q-13 -66 1.5 -91t78.5 -24l-7 -35h-294l8 35q44 3 62.5 29.5t37.5 111.5l180 848q13 66 -7 87.5t-95 21.5
l8 34l213 52h41zM328 543l-43 -199q151 35 233 88t82 115q0 33 -24 50t-64 17q-85 0 -184 -71z" />
    <glyph glyph-name="l" unicode="l" horiz-adv-x="501" 
d="M502 1219l-228 -1069q-16 -74 -3 -94.5t75 -20.5h41l-8 -35h-369l6 35h25q65 0 84 28t44 142l3 12l174 819q9 45 -2.5 65.5t-52.5 20.5q-29 0 -76 -8l6 37l240 68h41z" />
    <glyph glyph-name="m" unicode="m" horiz-adv-x="1185" 
d="M1090 471l-72 -348q-9 -47 6 -67.5t63 -20.5l-6 -35h-293l7 35q56 5 76.5 29.5t37.5 109.5l64 305q13 59 -12.5 97t-88.5 38q-34 0 -69.5 -23.5t-89.5 -82.5l-78 -356q-15 -68 0.5 -92.5t75.5 -24.5l-6 -35h-297l6 35q43 5 66.5 29t35.5 79l70 328q14 66 -9 104.5
t-75 38.5q-45 0 -94.5 -38t-90.5 -105l-69 -319q-17 -64 -1 -90.5t89 -26.5l-6 -35h-295l6 35q40 6 59.5 35t34.5 104l70 334q13 64 -7.5 84.5t-88.5 11.5l8 35l207 53h41l-29 -123l4 -4q117 131 219 131q132 0 150 -131q77 77 123 104t100 27q92 0 136 -61t22 -164z" />
    <glyph glyph-name="n" unicode="n" horiz-adv-x="854" 
d="M356 694l-26 -119l4 -4q78 74 125.5 99.5t105.5 25.5q98 0 155 -67t30 -197l-66 -315q-10 -52 7.5 -67t88.5 -15l-6 -35h-334l6 35q66 5 88 23.5t35 82.5l70 326q13 66 -19.5 106.5t-91.5 40.5q-92 0 -211 -125l-69 -333q-18 -70 -2.5 -95.5t88.5 -25.5l-6 -35h-297l6 35
q38 6 58 28.5t30 73.5l80 375q10 48 -5 71t-42 23q-28 0 -78 -12l10 45l225 55h41z" />
    <glyph glyph-name="o" unicode="o" horiz-adv-x="747" 
d="M698 465q0 -56 -18.5 -122t-55.5 -130.5t-85.5 -117t-116 -85.5t-139.5 -33q-94 0 -153.5 67t-59.5 171q0 89 36.5 177.5t94.5 155t135.5 107.5t155.5 41q83 0 144.5 -68.5t61.5 -162.5zM578 455q0 76 -39.5 129t-100.5 53q-98 0 -173 -124t-75 -288q0 -86 37.5 -137
t100.5 -51q101 0 175.5 124.5t74.5 293.5z" />
    <glyph glyph-name="p" unicode="p" horiz-adv-x="811" 
d="M360 696l-20 -88l4 -4q100 92 213 92q86 0 145.5 -71t59.5 -174q0 -83 -38.5 -165t-107 -150.5t-175.5 -111t-232 -42.5l-68 -316q-11 -53 -11 -81t12 -42t40 -14q24 0 70 10l-10 -47l-228 -55h-41l224 1044q14 65 0 97t-60 32q-17 0 -57 -6l8 35l231 57h41zM328 543
l-105 -492q31 -4 72 -4q153 0 249.5 106.5t96.5 272.5q0 88 -43 141.5t-115 53.5q-40 0 -74.5 -17.5t-80.5 -60.5z" />
    <glyph glyph-name="q" unicode="q" horiz-adv-x="788" 
d="M745 696l-223 -1050q-24 -117 51 -117q16 0 40.5 1t29.5 1l-10 -39l-219 -55h-54l138 649l-4 4q-60 -63 -110.5 -88t-115.5 -25q-95 0 -148.5 62t-53.5 172q0 221 221 373q89 61 212.5 90.5t245.5 21.5zM612 625l-51 2q-166 6 -272 -103q-103 -106 -103 -282
q0 -80 41.5 -131.5t108.5 -51.5q52 0 90 21.5t86 77.5z" />
    <glyph glyph-name="r" unicode="r" horiz-adv-x="575" 
d="M346 686l-55 -258l4 -4q28 78 65 145q33 60 73.5 93.5t78.5 33.5q44 0 82 -57l-70 -125q-36 37 -52 49t-28 12q-39 0 -98.5 -124t-79.5 -218l-22 -104q-21 -94 75 -94h29l-6 -35h-332l6 35q60 0 79 22t38 111l68 313q26 125 -41 125q-4 0 -68 -8l8 41l205 47h41z" />
    <glyph glyph-name="s" unicode="s" horiz-adv-x="512" 
d="M510 686l-35 -164h-33l-4 19q-10 51 -43.5 79.5t-81.5 28.5q-41 0 -70.5 -25.5t-29.5 -60.5t22 -74t53.5 -75t62.5 -74t53 -83.5t22 -90.5q0 -85 -71 -137t-185 -52q-41 0 -74 11l-22 6q-12 0 -31 -12h-35l37 176h37q-13 -58 23 -99t85 -41q55 0 95.5 32.5t40.5 76.5
q0 34 -20.5 73t-50 74t-59.5 70t-50.5 72.5t-20.5 70.5q0 87 64 148t157 61q23 0 48.5 -4t41.5 -8t17 -4q6 0 10 1t7.5 2.5t6.5 2.5h33z" />
    <glyph glyph-name="t" unicode="t" horiz-adv-x="532" 
d="M508 674l-10 -56h-187l-100 -468q-9 -44 3.5 -67.5t43.5 -23.5q84 0 213 109l25 -25q-184 -166 -320 -166q-44 0 -69 22.5t-25 63.5q0 35 22 142l89 413h-123l6 35q90 12 144 56t104 143h36l-38 -178h186z" />
    <glyph glyph-name="u" unicode="u" horiz-adv-x="854" 
d="M797 696l-103 -493q-10 -44 -10 -86q0 -38 17.5 -52t68.5 -10l-8 -35l-236 -38l29 131l-4 4q-85 -75 -145.5 -107.5t-116.5 -32.5q-71 0 -115.5 49.5t-44.5 127.5q0 52 14 118l52 238q11 54 -1.5 75t-60.5 21q-15 0 -31 -2l7 35l202 57h41l-94 -450q-12 -65 -12 -82
q0 -45 30 -77t72 -32q49 0 108 34.5t113 94.5l72 334q9 44 -6.5 67t-48.5 23q-15 0 -39 -4l6 35l203 57h41z" />
    <glyph glyph-name="v" unicode="v" horiz-adv-x="608" 
d="M510 494l-299 -512h-37l-49 534q-6 76 -20.5 99t-63.5 24l6 35h293l-6 -35q-64 -1 -80.5 -33t-7.5 -127l24 -317h4l201 354q33 57 33 74q0 25 -18.5 36t-59.5 13l6 35h223l-6 -35q-51 -15 -70.5 -35t-72.5 -110z" />
    <glyph glyph-name="w" unicode="w" horiz-adv-x="968" 
d="M887 494l-305 -512h-31l-43 477h-4l-316 -477h-34l-21 546q-2 65 -17.5 86.5t-74.5 24.5l8 35h287l-8 -35q-55 -3 -71 -28.5t-13 -104.5l12 -344h4l246 366q-4 70 -22 89.5t-78 21.5l8 35h301l-8 -35q-59 0 -78 -11.5t-17 -39.5l35 -426h4l197 344q37 64 37 90
q0 46 -82 43l8 35h219l-8 -35q-41 -10 -63.5 -35t-62.5 -94q-6 -10 -9 -16z" />
    <glyph glyph-name="x" unicode="x" horiz-adv-x="704" 
d="M426 383l86 -225q32 -83 57 -102.5t103 -20.5l-6 -35h-320l6 35q39 3 54.5 13.5t15.5 33.5t-12 53l-60 150l-137 -150q-10 -10 -19.5 -30t-9.5 -31q0 -20 12.5 -28.5t41.5 -10.5l-7 -35h-227l6 35q37 3 63.5 20.5t67.5 61.5l191 209l-76 204q-40 109 -133 109l8 35h277
l-9 -35q-58 -3 -39 -64l50 -151l96 106q33 38 33 70q0 39 -37 39l8 35h197l-7 -35q-40 -3 -68 -24.5t-85 -88.5z" />
    <glyph glyph-name="y" unicode="y" horiz-adv-x="747" 
d="M782 674l-8 -35q-35 -3 -58 -17.5t-33 -28t-36 -60.5q-5 -8 -8 -13l-387 -700q-56 -102 -87.5 -146.5t-74.5 -87.5q-75 -75 -161 -118t-169 -43q-3 0 -51 6l39 110q165 -1 285.5 95t222.5 288l-47 576q-5 64 -13.5 92t-23 37t-47.5 10l8 35h301l-8 -35q-75 0 -94 -22.5
t-13 -94.5l35 -426h4l222 404q38 70 38 96q0 23 -14.5 33t-48.5 10l8 35h219z" />
    <glyph glyph-name="z" unicode="z" horiz-adv-x="747" 
d="M717 674v-35l-539 -604h230q95 0 133 26.5t61 106.5h35l-35 -168h-569v35l534 604h-215q-78 0 -116.5 -26.5t-57.5 -92.5h-35l33 154h541z" />
    <glyph glyph-name="braceleft" unicode="{" horiz-adv-x="983" 
d="M266 375v45q106 15 172 79.5t66 153.5q0 39 -21 133q-22 86 -22 164q0 139 97 245.5t251 135.5l8 -37q-108 -25 -167.5 -85t-59.5 -144q0 -58 22 -166q21 -124 21 -154q0 -112 -74.5 -202t-210.5 -146q136 -56 210.5 -146t74.5 -202q0 -29 -21 -153q-22 -108 -22 -166
q0 -85 59.5 -145t167.5 -85l-8 -37q-154 29 -251 135.5t-97 245.5q0 78 22 164q21 99 21 133q0 89 -66 154t-172 80z" />
    <glyph glyph-name="bar" unicode="|" horiz-adv-x="1015" 
d="M483 1219h90v-1702h-90v1702z" />
    <glyph glyph-name="braceright" unicode="}" horiz-adv-x="983" 
d="M758 420v-45q-106 -15 -172 -80t-66 -154q0 -43 23 -133q20 -94 20 -164q0 -139 -97 -245.5t-251 -135.5l-8 37q108 25 167.5 85t59.5 145q0 48 -20 166q-23 113 -23 153q0 112 74.5 202t210.5 146q-136 56 -210.5 146t-74.5 202q0 41 23 154q20 118 20 166
q0 84 -59.5 144t-167.5 85l8 37q154 -29 251 -135.5t97 -245.5q0 -70 -20 -164q-23 -86 -23 -133q0 -89 66 -153.5t172 -79.5z" />
    <glyph glyph-name="asciitilde" unicode="~" horiz-adv-x="1366" 
d="M1202 799h47q-3 -128 -72 -207.5t-178 -79.5q-62 0 -183 45.5t-238 91t-168 45.5q-74 0 -122 -46t-63 -134h-47q-3 122 65.5 204.5t182.5 82.5q51 0 138 -29t165.5 -64.5t162 -64.5t128.5 -29q76 0 124.5 48.5t57.5 136.5z" />
    <glyph glyph-name="uni00A0" unicode="&#xa0;" horiz-adv-x="460" 
 />
    <glyph glyph-name="exclamdown" unicode="&#xa1;" 
d="M406 414l-121 -871q-7 -49 -30 -74.5t-52 -25.5q-43 0 -63 40t1 111l230 820h35zM422 510q-35 0 -60.5 25.5t-25.5 60.5t25.5 61.5t60.5 26.5t61.5 -26.5t26.5 -61.5t-26.5 -60.5t-61.5 -25.5z" />
    <glyph glyph-name="cent" unicode="&#xa2;" 
d="M606 1212l-127 -518q14 1 40.5 -3.5t37.5 -4.5q27 0 41 14h23l-23 -196h-29q6 109 -104 133l-141 -576q68 0 116 20t107 69l22 -25q-77 -72 -132.5 -105t-133.5 -40l-133 -539h-37l133 539q-84 0 -138 68t-54 175q0 81 34 166t86 150t119 108t129 47l127 518h37zM287 70
l141 569q-87 -5 -160 -124.5t-73 -272.5q0 -146 92 -172z" />
    <glyph glyph-name="sterling" unicode="&#xa3;" horiz-adv-x="937" 
d="M72 80q0 -20 16.5 -36.5t38.5 -16.5q41 0 80 33t59 90q-37 12 -67 12q-52 0 -89.5 -24t-37.5 -58zM698 473h-260q-26 -130 -61 -242q63 -16 125.5 -51t111.5 -59.5t95 -24.5t83 33.5t46 83.5h34q-17 -100 -77.5 -168t-132.5 -68q-61 0 -117 27l-213 125
q-27 -66 -80.5 -106t-118.5 -37q-42 2 -72 28t-30 68q0 63 79 110.5t187 38.5q19 83 39 242h-223l8 45h219l8 76t8.5 79t9 70.5t11.5 71.5t14 61t19 61t23.5 48.5t29.5 44.5q94 131 250 131q191 0 231 -196h-35q-12 59 -53 95t-98 36q-65 0 -119 -54q-43 -34 -78.5 -115.5
t-52 -146t-47.5 -208.5l-12 -54h258z" />
    <glyph glyph-name="currency" unicode="&#xa4;" horiz-adv-x="1388" 
d="M977 999l123 123l61 -61l-123 -123q48 -56 74.5 -131.5t26.5 -151.5q0 -81 -28 -155.5t-73 -126.5l123 -123l-61 -62l-125 125q-52 -49 -126 -75.5t-155 -26.5q-153 0 -282 100l-123 -123l-62 62l123 123q-100 121 -100 282q0 157 100 283l-123 123l62 61l123 -123
q131 101 282 101q154 0 283 -101zM694 1010q-148 0 -251 -103.5t-103 -251.5t103 -251t251 -103t251.5 103t103.5 251t-103.5 251.5t-251.5 103.5z" />
    <glyph glyph-name="yen" unicode="&#xa5;" horiz-adv-x="937" 
d="M551 586l-39 -191h346l-10 -45h-346l-37 -172q-18 -81 3 -112t101 -31l-6 -35h-377l7 35q60 8 86 31.5t38 83.5l43 200h-354l10 45h355l39 191h-351l11 45h354l-154 366q-27 64 -49.5 82.5t-83.5 22.5l8 35h338l-8 -35q-41 -3 -56.5 -12t-15.5 -31q0 -11 29 -84l123 -299
h8l228 299q16 21 22 29.5t11 21.5t5 27q0 26 -21.5 37.5t-70.5 11.5l8 35h295l-8 -35q-80 -3 -143 -78l-307 -393h329l-10 -45h-350z" />
    <glyph glyph-name="brokenbar" unicode="&#xa6;" horiz-adv-x="1015" 
d="M483 236h90v-719h-90v719zM483 1219h90v-721h-90v721z" />
    <glyph glyph-name="section" unicode="&#xa7;" horiz-adv-x="854" 
d="M360 963q0 -50 39.5 -116.5t96 -134.5t112.5 -139.5t95.5 -151.5t39.5 -149q0 -176 -215 -292q48 -73 62 -109t14 -88q0 -107 -73.5 -175.5t-188.5 -68.5q-100 0 -169 59.5t-69 145.5q0 45 22 73.5t56 28.5q30 0 47 -19t17 -52q0 -16 -15.5 -56.5t-15.5 -60.5
q0 -35 35.5 -58.5t89.5 -23.5q73 0 120.5 43t47.5 109q0 54 -38.5 119t-93 129t-109.5 130.5t-93.5 144.5t-38.5 150q0 101 60 184.5t161 121.5q-46 65 -64 112.5t-18 102.5q0 101 69 163t183 62q104 0 171 -58t67 -147q0 -46 -21.5 -74t-58.5 -28q-29 0 -50.5 23t-21.5 55
q0 29 23.5 60t23.5 46q0 37 -35 61.5t-89 24.5q-79 0 -127 -40t-48 -107zM651 205q0 55 -29.5 119.5t-63.5 111.5t-93.5 123t-87.5 115q-148 -62 -148 -205q0 -54 32.5 -123t69 -118.5t95.5 -124t80 -103.5q76 38 110.5 93t34.5 112z" />
    <glyph glyph-name="dieresis" unicode="&#xa8;" horiz-adv-x="681" 
d="M295 1118q35 0 59.5 -24.5t24.5 -59.5t-24.5 -60.5t-59.5 -25.5t-60.5 25.5t-25.5 60.5t25.5 59.5t60.5 24.5zM674 1118q35 0 59.5 -24.5t24.5 -59.5t-24.5 -60.5t-59.5 -25.5t-60.5 25.5t-25.5 60.5t25.5 59.5t60.5 24.5z" />
    <glyph glyph-name="copyright" unicode="&#xa9;" horiz-adv-x="1556" 
d="M1096 1137l18 -297h-31q-31 125 -106 185t-178 60q-135 0 -219 -112.5t-84 -292.5q0 -182 86 -286.5t235 -104.5q89 0 158.5 41t138.5 133l21 -14q-127 -220 -349 -220q-184 0 -305 126t-121 317q0 192 125 324t306 132q72 0 142.5 -25.5t90.5 -25.5q35 0 41 60h31z
M1434 666q0 177 -88.5 327.5t-239.5 238t-328 87.5q-133 0 -253.5 -52t-208 -139.5t-139.5 -208t-52 -253.5q0 -177 87.5 -328t238 -239.5t327.5 -88.5q133 0 254 52.5t209 140.5t140.5 209t52.5 254zM1487 666q0 -115 -36 -223.5t-101.5 -195.5t-152.5 -152.5
t-195.5 -101.5t-223.5 -36q-144 0 -275 56t-225 151t-150 226.5t-56 275.5q0 192 94.5 354.5t257 257t354.5 94.5q144 0 275.5 -56t226.5 -150t151 -225t56 -275z" />
    <glyph glyph-name="ordfeminine" unicode="&#xaa;" horiz-adv-x="555" 
d="M582 1161l-68 -315q-6 -31 7 -44t46 -7l-6 -31l-155 -33l12 60l-4 4q-38 -36 -69.5 -50t-74.5 -14q-66 0 -100.5 33t-34.5 96q0 51 26 102.5t74.5 96.5t129 73.5t178.5 28.5h39zM485 1112h-26q-101 0 -168.5 -66.5t-67.5 -166.5q0 -45 21.5 -70t62.5 -25q64 0 123 68z
" />
    <glyph glyph-name="guillemotleft" unicode="&#xab;" horiz-adv-x="854" 
d="M786 707l-270 -390l39 -366h-39l-121 397l348 359h43zM481 707l-270 -390l39 -366h-39l-121 397l348 359h43z" />
    <glyph glyph-name="logicalnot" unicode="&#xac;" horiz-adv-x="1366" 
d="M176 819h1075v-551h-88v463h-987v88z" />
    <glyph glyph-name="uni00AD" unicode="&#xad;" 
d="M520 399v-77h-401v77h401z" />
    <glyph glyph-name="registered" unicode="&#xae;" horiz-adv-x="1556" 
d="M618 649v-229q0 -88 23.5 -114.5t108.5 -26.5l-7 -35h-368l8 35q80 0 99.5 23t19.5 118v526q0 80 -22.5 105.5t-102.5 25.5l6 31h336q155 0 229 -63.5t74 -157.5q0 -89 -59.5 -145.5t-163.5 -67.5l192 -264q57 -76 93 -101.5t104 -29.5l-6 -35h-197l-283 381
q-8 12 -18.5 17.5t-16 6t-18.5 0.5h-31zM618 692h44q111 0 171 54.5t60 150.5q0 78 -49.5 123t-138.5 45q-43 0 -87 -16v-357zM1434 666q0 177 -88.5 327.5t-239.5 238t-328 87.5q-133 0 -253.5 -52t-208 -139.5t-139.5 -208t-52 -253.5q0 -177 87.5 -328t238 -239.5
t327.5 -88.5q133 0 254 52.5t209 140.5t140.5 209t52.5 254zM1487 666q0 -115 -36 -223.5t-101.5 -195.5t-152.5 -152.5t-195.5 -101.5t-223.5 -36q-144 0 -275 56t-225 151t-150 226.5t-56 275.5q0 192 94.5 354.5t257 257t354.5 94.5q144 0 275.5 -56t226.5 -150t151 -225
t56 -275z" />
    <glyph glyph-name="macron" unicode="&#xaf;" horiz-adv-x="681" 
d="M207 1063h522l-20 -84h-523z" />
    <glyph glyph-name="degree" unicode="&#xb0;" horiz-adv-x="817" 
d="M469 1386q127 0 217 -90t90 -217t-90 -217t-217 -90t-217 90t-90 217t90 217t217 90zM469 1305q-94 0 -159.5 -66t-65.5 -160t65.5 -159.5t159.5 -65.5t159.5 65.5t65.5 159.5t-65.5 160t-159.5 66z" />
    <glyph glyph-name="plusminus" unicode="&#xb1;" horiz-adv-x="1366" 
d="M145 858h494v494h88v-494h494v-88h-494v-494h-88v494h-494v88zM145 51h1076v-88h-1076v88z" />
    <glyph glyph-name="twosuperior" unicode="&#xb2;" 
d="M563 639l-14 -66h-406l7 27q171 130 276.5 252t105.5 201q0 42 -25 68t-67 26q-65 0 -159 -90l-31 20q118 121 229 121q67 0 114.5 -36t47.5 -87q0 -84 -83 -176.5t-306 -255.5v-4h311z" />
    <glyph glyph-name="threesuperior" unicode="&#xb3;" 
d="M305 1083l-24 23q92 92 215 92q62 0 103.5 -32t41.5 -79q0 -55 -42 -95t-134 -72v-5q60 -17 97.5 -58.5t37.5 -90.5q0 -84 -76 -143.5t-182 -59.5q-117 0 -213 86l25 23q82 -42 84 -43q38 -15 73 -15q73 0 125.5 51.5t52.5 120.5q0 108 -186 91l6 28q120 29 170.5 66
t50.5 92q0 37 -23 60.5t-61 23.5q-32 0 -62.5 -14t-78.5 -50z" />
    <glyph glyph-name="acute" unicode="&#xb4;" horiz-adv-x="681" 
d="M659 1219l-215 -394h-41l144 394h112z" />
    <glyph glyph-name="mu" unicode="&#xb5;" horiz-adv-x="1024" 
d="M168 139l115 557h120l-104 -487q-16 -70 17.5 -110t80.5 -40q50 0 110.5 33t113.5 92l108 512h119l-105 -493q-19 -82 -10 -115t58 -33h28l-8 -35l-233 -38l28 131l-4 4q-85 -75 -146 -107.5t-118 -32.5q-44 0 -76 19t-63 65q-27 -82 -27 -270q0 -141 -78 -141
q-31 0 -51 18.5t-20 46.5q0 21 15 55.5t36 74t48 119t46 175.5z" />
    <glyph glyph-name="paragraph" unicode="&#xb6;" horiz-adv-x="927" 
d="M819 1298h-182v-1742h-59v1071q-128 -2 -221.5 25t-145.5 77t-76 111t-24 135q0 72 24.5 137.5t74 120.5t135 88t196.5 33h479l-8 -35q-85 -8 -109 -35.5t-24 -118.5v-1609h-60v1742z" />
    <glyph glyph-name="periodcentered" unicode="&#xb7;" horiz-adv-x="559" 
d="M281 696q35 0 60.5 -25.5t25.5 -60.5t-25.5 -61.5t-60.5 -26.5t-61.5 26.5t-26.5 61.5t26.5 60.5t61.5 25.5z" />
    <glyph glyph-name="cedilla" unicode="&#xb8;" horiz-adv-x="681" 
d="M358 14l-53 -131q94 -30 94 -112q0 -76 -69.5 -130t-198.5 -77l8 39q88 28 127 61t39 80q0 56 -72 74l84 196h41z" />
    <glyph glyph-name="onesuperior" unicode="&#xb9;" 
d="M532 1198l-122 -512q-19 -78 34 -78h35l-8 -35h-260l8 35h27q37 0 46.5 9t20.5 51l95 383q17 65 -13 65q-13 0 -39.5 -6.5t-31.5 -7.5l6 35l166 61h36z" />
    <glyph glyph-name="ordmasculine" unicode="&#xba;" horiz-adv-x="491" 
d="M422 1161q57 0 98 -41t41 -98q0 -110 -84.5 -200.5t-187.5 -90.5q-63 0 -104.5 40t-41.5 103q0 110 86 198.5t193 88.5zM387 1120q-59 0 -105 -72.5t-46 -164.5q0 -51 21.5 -81t59.5 -30q62 0 108 73t46 171q0 47 -23.5 75.5t-60.5 28.5z" />
    <glyph glyph-name="guillemotright" unicode="&#xbb;" horiz-adv-x="854" 
d="M381 -49l270 389l-39 367h39l121 -398l-348 -358h-43zM76 -49l270 389l-39 367h39l121 -398l-348 -358h-43z" />
    <glyph glyph-name="onequarter" unicode="&#xbc;" horiz-adv-x="1536" 
d="M1364 213l-12 -55h-138l-36 -158h-88l38 158h-319l6 26l481 443h35l-102 -414h135zM1309 1196h59l-1087 -1196h-68zM1204 485l-301 -272h238l67 268zM532 1198l-122 -512q-19 -78 34 -78h35l-8 -35h-260l8 35h27q37 0 46.5 9t20.5 51l95 383q17 65 -13 65
q-13 0 -39.5 -6.5t-31.5 -7.5l6 35l166 61h36z" />
    <glyph glyph-name="onehalf" unicode="&#xbd;" horiz-adv-x="1536" 
d="M1341 66l-14 -66h-405l6 27q172 130 277.5 251.5t105.5 200.5q0 42 -25 67t-67 25q-68 0 -160 -88l-31 21q118 121 229 121q67 0 114.5 -36t47.5 -87q0 -84 -83 -176.5t-306 -255.5v-4h311zM1309 1196h59l-1087 -1196h-68zM532 1198l-122 -512q-19 -78 34 -78h35l-8 -35
h-260l8 35h27q37 0 46.5 9t20.5 51l95 383q17 65 -13 65q-13 0 -39.5 -6.5t-31.5 -7.5l6 35l166 61h36z" />
    <glyph glyph-name="threequarters" unicode="&#xbe;" horiz-adv-x="1536" 
d="M1376 213l-12 -55h-137l-37 -158h-88l39 158h-320l6 26l482 443h34l-102 -414h135zM1321 1196h59l-1087 -1196h-68zM1217 485l-302 -272h238l68 268zM307 1083l-24 23q92 92 215 92q62 0 103.5 -32t41.5 -79q0 -55 -42 -95t-134 -72v-5q60 -17 97.5 -58.5t37.5 -90.5
q0 -84 -76 -143.5t-182 -59.5q-117 0 -213 86l25 23q82 -42 84 -43q38 -15 73 -15q73 0 126 51.5t53 120.5q0 108 -187 91l6 28q120 29 170.5 66t50.5 92q0 37 -22.5 60.5t-60.5 23.5q-32 0 -63 -14t-79 -50z" />
    <glyph glyph-name="questiondown" unicode="&#xbf;" 
d="M469 414l-41 -189q-3 -16 -8 -45t-8 -41.5t-11 -29.5t-20 -29q-18 -18 -55.5 -42t-73 -47t-70.5 -51.5t-56.5 -65t-21.5 -77.5q0 -72 64.5 -121t157.5 -49q81 0 168 37l-9 -45q-83 -74 -200 -74q-97 0 -161.5 78.5t-64.5 196.5q0 159 105 264q59 59 117.5 90t76.5 49
q25 25 72 191h39zM487 508q-35 0 -60.5 25.5t-25.5 60.5t25.5 61.5t60.5 26.5t61.5 -26.5t26.5 -61.5t-26.5 -60.5t-61.5 -25.5z" />
    <glyph glyph-name="Agrave" unicode="&#xc0;" horiz-adv-x="960" 
d="M768 1161v-1009q0 -74 22.5 -95.5t94.5 -21.5l-8 -35h-359l-6 35q70 0 92.5 20.5t22.5 85.5v332h-260l-117 -199q-92 -158 -92 -198q0 -23 20 -32t70 -9l-8 -35h-297l8 35q67 6 105.5 36.5t90.5 116.5l584 973h37zM627 518v395h-4l-228 -395h232zM606 1608h113l143 -394
h-41z" />
    <glyph glyph-name="Aacute" unicode="&#xc1;" horiz-adv-x="960" 
d="M768 1161v-1009q0 -74 22.5 -95.5t94.5 -21.5l-8 -35h-359l-6 35q70 0 92.5 20.5t22.5 85.5v332h-260l-117 -199q-92 -158 -92 -198q0 -23 20 -32t70 -9l-8 -35h-297l8 35q67 6 105.5 36.5t90.5 116.5l584 973h37zM627 518v395h-4l-228 -395h232zM975 1608l-215 -394h-41
l143 394h113z" />
    <glyph glyph-name="Acircumflex" unicode="&#xc2;" horiz-adv-x="960" 
d="M768 1161v-1009q0 -74 22.5 -95.5t94.5 -21.5l-8 -35h-359l-6 35q70 0 92.5 20.5t22.5 85.5v332h-260l-117 -199q-92 -158 -92 -198q0 -23 20 -32t70 -9l-8 -35h-297l8 35q67 6 105.5 36.5t90.5 116.5l584 973h37zM627 518v395h-4l-228 -395h232zM895 1608l127 -355h-41
l-158 248l-278 -248h-47l325 355h72z" />
    <glyph glyph-name="Atilde" unicode="&#xc3;" horiz-adv-x="960" 
d="M768 1161v-1009q0 -74 22.5 -95.5t94.5 -21.5l-8 -35h-359l-6 35q70 0 92.5 20.5t22.5 85.5v332h-260l-117 -199q-92 -158 -92 -198q0 -23 20 -32t70 -9l-8 -35h-297l8 35q67 6 105.5 36.5t90.5 116.5l584 973h37zM627 518v395h-4l-228 -395h232zM1040 1505h35
q-3 -67 -51.5 -121.5t-105.5 -54.5q-54 0 -170 47q-107 47 -146 47q-31 0 -53 -24t-31 -68h-37q1 72 54.5 123t117.5 51q80 0 172 -47q6 -3 27.5 -13.5t29.5 -13.5t23.5 -9.5t26.5 -8.5t22 -2q34 0 57 25t29 69z" />
    <glyph glyph-name="Adieresis" unicode="&#xc4;" horiz-adv-x="960" 
d="M768 1161v-1009q0 -74 22.5 -95.5t94.5 -21.5l-8 -35h-359l-6 35q70 0 92.5 20.5t22.5 85.5v332h-260l-117 -199q-92 -158 -92 -198q0 -23 20 -32t70 -9l-8 -35h-297l8 35q67 6 105.5 36.5t90.5 116.5l584 973h37zM627 518v395h-4l-228 -395h232zM602 1507
q35 0 59.5 -24.5t24.5 -59.5t-24.5 -60.5t-59.5 -25.5t-60.5 25.5t-25.5 60.5t25.5 59.5t60.5 24.5zM981 1507q35 0 59.5 -24.5t24.5 -59.5t-24.5 -60.5t-59.5 -25.5t-60.5 25.5t-25.5 60.5t25.5 59.5t60.5 24.5z" />
    <glyph glyph-name="Aring" unicode="&#xc5;" horiz-adv-x="960" 
d="M768 1161v-1009q0 -74 22.5 -95.5t94.5 -21.5l-8 -35h-359l-6 35q70 0 92.5 20.5t22.5 85.5v332h-260l-117 -199q-92 -158 -92 -198q0 -23 20 -32t70 -9l-8 -35h-297l8 35q67 6 105.5 36.5t90.5 116.5l584 973h37zM627 518v395h-4l-228 -395h232zM803 1595
q73 0 125.5 -52.5t52.5 -125.5t-52.5 -125.5t-125.5 -52.5t-125.5 52.5t-52.5 125.5t52.5 125.5t125.5 52.5zM803 1546q-54 0 -91.5 -37.5t-37.5 -91.5t37.5 -91.5t91.5 -37.5t91.5 37.5t37.5 91.5t-37.5 91.5t-91.5 37.5z" />
    <glyph glyph-name="AE" unicode="&#xc6;" horiz-adv-x="1392" 
d="M1257 711l-55 -262h-35q-9 65 -40.5 87.5t-114.5 22.5h-150l-71 -336q-25 -94 -0.5 -131t127.5 -37h81q134 0 201.5 44t126.5 159h35l-105 -258h-753l8 35q63 9 88 39t45 123l57 274h-294l-170 -248q-26 -36 -44 -75t-18 -58q0 -29 21 -39.5t79 -15.5l-8 -35h-321l8 35
q62 5 104 38t113 138l633 926h581l-38 -185h-35q5 85 -19 107t-131 22h-188l-101 -467h187q71 0 110 23t52 74h34zM713 516l121 565h-11l-387 -565h277z" />
    <glyph glyph-name="Ccedilla" unicode="&#xc7;" horiz-adv-x="1003" 
d="M432 -182l68 159q-163 20 -264 153.5t-101 332.5q0 131 50.5 259t131.5 224t190 155.5t220 59.5q48 0 120.5 -16.5t80.5 -16.5q27 0 61 52h35l-43 -203h-35q-27 63 -89.5 101t-127.5 38q-78 0 -156.5 -45.5t-142 -126.5t-103.5 -205.5t-40 -269.5q0 -203 90.5 -312.5
t222.5 -109.5q192 0 322 215l28 -33q-87 -133 -184 -193.5t-225 -60.5l-37 -92q94 -30 94 -112q0 -76 -69.5 -130t-198.5 -77l8 39q88 28 127 61t39 80q0 56 -72 74z" />
    <glyph glyph-name="Egrave" unicode="&#xc8;" horiz-adv-x="927" 
d="M797 711l-56 -265h-39q-9 66 -37.5 88.5t-103.5 22.5h-158l-77 -369q-25 -133 88 -133h131q124 0 183.5 37.5t117.5 161.5h47l-96 -254h-758l8 35q65 6 91.5 34t43.5 109l170 803q12 62 -9 91t-91 30l6 35h664l-39 -185h-35q0 82 -20 105.5t-99 23.5h-211l-102 -469h225
q45 0 69.5 20.5t47.5 78.5h39zM406 1608h112l144 -394h-41z" />
    <glyph glyph-name="Eacute" unicode="&#xc9;" horiz-adv-x="927" 
d="M797 711l-56 -265h-39q-9 66 -37.5 88.5t-103.5 22.5h-158l-77 -369q-25 -133 88 -133h131q124 0 183.5 37.5t117.5 161.5h47l-96 -254h-758l8 35q65 6 91.5 34t43.5 109l170 803q12 62 -9 91t-91 30l6 35h664l-39 -185h-35q0 82 -20 105.5t-99 23.5h-211l-102 -469h225
q45 0 69.5 20.5t47.5 78.5h39zM852 1608l-215 -394h-41l143 394h113z" />
    <glyph glyph-name="Ecircumflex" unicode="&#xca;" horiz-adv-x="927" 
d="M797 711l-56 -265h-39q-9 66 -37.5 88.5t-103.5 22.5h-158l-77 -369q-25 -133 88 -133h131q124 0 183.5 37.5t117.5 161.5h47l-96 -254h-758l8 35q65 6 91.5 34t43.5 109l170 803q12 62 -9 91t-91 30l6 35h664l-39 -185h-35q0 82 -20 105.5t-99 23.5h-211l-102 -469h225
q45 0 69.5 20.5t47.5 78.5h39zM786 1608l127 -355h-41l-157 248l-279 -248h-47l326 355h71z" />
    <glyph glyph-name="Edieresis" unicode="&#xcb;" horiz-adv-x="927" 
d="M797 711l-56 -265h-39q-9 66 -37.5 88.5t-103.5 22.5h-158l-77 -369q-25 -133 88 -133h131q124 0 183.5 37.5t117.5 161.5h47l-96 -254h-758l8 35q65 6 91.5 34t43.5 109l170 803q12 62 -9 91t-91 30l6 35h664l-39 -185h-35q0 82 -20 105.5t-99 23.5h-211l-102 -469h225
q45 0 69.5 20.5t47.5 78.5h39zM492 1507q35 0 59 -24.5t24 -59.5q0 -36 -24 -61t-59 -25t-60.5 25.5t-25.5 60.5t25.5 59.5t60.5 24.5zM870 1507q35 0 59.5 -24.5t24.5 -59.5t-24.5 -60.5t-59.5 -25.5t-60.5 25.5t-25.5 60.5t25.5 59.5t60.5 24.5z" />
    <glyph glyph-name="Igrave" unicode="&#xcc;" horiz-adv-x="532" 
d="M596 1137l-6 -35q-52 -12 -76 -43t-41 -111l-166 -774q-19 -69 -5 -102.5t79 -36.5l-8 -35h-355l9 35q69 6 95.5 32.5t43.5 106.5l166 774q20 100 2.5 127t-92.5 27l8 35h346zM223 1608h113l143 -394h-41z" />
    <glyph glyph-name="Iacute" unicode="&#xcd;" horiz-adv-x="532" 
d="M596 1137l-6 -35q-52 -12 -76 -43t-41 -111l-166 -774q-19 -69 -5 -102.5t79 -36.5l-8 -35h-355l9 35q69 6 95.5 32.5t43.5 106.5l166 774q20 100 2.5 127t-92.5 27l8 35h346zM674 1608l-215 -394h-41l143 394h113z" />
    <glyph glyph-name="Icircumflex" unicode="&#xce;" horiz-adv-x="532" 
d="M596 1137l-6 -35q-52 -12 -76 -43t-41 -111l-166 -774q-19 -69 -5 -102.5t79 -36.5l-8 -35h-355l9 35q69 6 95.5 32.5t43.5 106.5l166 774q20 100 2.5 127t-92.5 27l8 35h346zM573 1608l127 -355h-41l-157 248l-279 -248h-47l326 355h71z" />
    <glyph glyph-name="Idieresis" unicode="&#xcf;" horiz-adv-x="532" 
d="M596 1137l-6 -35q-52 -12 -76 -43t-41 -111l-166 -774q-19 -69 -5 -102.5t79 -36.5l-8 -35h-355l9 35q69 6 95.5 32.5t43.5 106.5l166 774q20 100 2.5 127t-92.5 27l8 35h346zM281 1507q35 0 59.5 -24.5t24.5 -59.5t-24.5 -60.5t-59.5 -25.5t-60.5 25.5t-25.5 60.5
t25.5 59.5t60.5 24.5zM659 1507q35 0 59.5 -24.5t24.5 -59.5t-24.5 -60.5t-59.5 -25.5t-60.5 25.5t-25.5 60.5t25.5 59.5t60.5 24.5z" />
    <glyph glyph-name="Eth" unicode="&#xd0;" horiz-adv-x="1193" 
d="M18 0l9 35q65 0 96.5 31.5t48.5 111.5l80 377h-201l10 45h201l103 485q-81 -17 -172 -88l-19 27q73 72 158 104.5t196 32.5q266 0 436.5 -163.5t170.5 -419.5q0 -111 -40 -213t-116.5 -184.5t-200 -131.5t-276.5 -49h-484zM510 1102l-107 -502h273l-10 -45h-273l-86 -408
q-9 -48 30 -75t132 -27q101 0 183 22.5t136.5 62t94 88.5t60.5 108t30.5 114t9.5 113q0 82 -18 159t-56 147t-93 122.5t-133.5 85t-172.5 35.5z" />
    <glyph glyph-name="Ntilde" unicode="&#xd1;" horiz-adv-x="1236" 
d="M233 174l170 809q-50 69 -88 94t-96 25h-37l6 35h281l504 -926l164 772q26 119 -78 119h-37l6 35h285l-6 -35q-59 -6 -87.5 -37t-43.5 -104l-205 -961h-43l-488 922h-4l-155 -748q-16 -76 4.5 -107.5t103.5 -31.5l-8 -35h-283l8 35q54 3 83 34.5t44 104.5zM1098 1505h35
q-3 -67 -52 -121.5t-106 -54.5q-54 0 -170 47q-107 47 -146 47q-31 0 -53 -24t-31 -68h-36q1 72 54.5 123t117.5 51q80 0 172 -47q6 -3 27.5 -13.5t29.5 -13.5t23.5 -9.5t26.5 -8.5t22 -2q34 0 57 25t29 69z" />
    <glyph glyph-name="Ograve" unicode="&#xd2;" horiz-adv-x="1153" 
d="M1128 745q0 -102 -27.5 -209.5t-82 -207.5t-127 -179t-171 -126.5t-206.5 -47.5q-167 0 -271 116t-104 302q0 132 47.5 269t127 247.5t195 181t241.5 70.5q172 0 275 -113.5t103 -302.5zM977 772q0 152 -73 248t-189 96q-75 0 -143 -45t-118 -120.5t-87.5 -172
t-56.5 -202.5t-19 -209q0 -157 72 -252t192 -95q84 0 156 51t119.5 132t81.5 182t49.5 200t15.5 187zM573 1608h113l143 -394h-41z" />
    <glyph glyph-name="Oacute" unicode="&#xd3;" horiz-adv-x="1153" 
d="M1128 745q0 -102 -27.5 -209.5t-82 -207.5t-127 -179t-171 -126.5t-206.5 -47.5q-167 0 -271 116t-104 302q0 132 47.5 269t127 247.5t195 181t241.5 70.5q172 0 275 -113.5t103 -302.5zM977 772q0 152 -73 248t-189 96q-75 0 -143 -45t-118 -120.5t-87.5 -172
t-56.5 -202.5t-19 -209q0 -157 72 -252t192 -95q84 0 156 51t119.5 132t81.5 182t49.5 200t15.5 187zM963 1608l-215 -394h-41l143 394h113z" />
    <glyph glyph-name="Ocircumflex" unicode="&#xd4;" horiz-adv-x="1153" 
d="M1128 745q0 -102 -27.5 -209.5t-82 -207.5t-127 -179t-171 -126.5t-206.5 -47.5q-167 0 -271 116t-104 302q0 132 47.5 269t127 247.5t195 181t241.5 70.5q172 0 275 -113.5t103 -302.5zM977 772q0 152 -73 248t-189 96q-75 0 -143 -45t-118 -120.5t-87.5 -172
t-56.5 -202.5t-19 -209q0 -157 72 -252t192 -95q84 0 156 51t119.5 132t81.5 182t49.5 200t15.5 187zM883 1608l127 -355h-41l-158 248l-279 -248h-47l326 355h72z" />
    <glyph glyph-name="Otilde" unicode="&#xd5;" horiz-adv-x="1153" 
d="M1128 745q0 -102 -27.5 -209.5t-82 -207.5t-127 -179t-171 -126.5t-206.5 -47.5q-167 0 -271 116t-104 302q0 132 47.5 269t127 247.5t195 181t241.5 70.5q172 0 275 -113.5t103 -302.5zM977 772q0 152 -73 248t-189 96q-75 0 -143 -45t-118 -120.5t-87.5 -172
t-56.5 -202.5t-19 -209q0 -157 72 -252t192 -95q84 0 156 51t119.5 132t81.5 182t49.5 200t15.5 187zM1042 1505h35q-3 -67 -51.5 -121.5t-105.5 -54.5q-54 0 -170 47q-107 47 -146 47q-31 0 -53 -24t-31 -68h-37q1 72 54.5 123t117.5 51q80 0 172 -47q6 -3 27.5 -13.5
t29.5 -13.5t23.5 -9.5t26.5 -8.5t22 -2q34 0 57 25t29 69z" />
    <glyph glyph-name="Odieresis" unicode="&#xd6;" horiz-adv-x="1153" 
d="M1128 745q0 -102 -27.5 -209.5t-82 -207.5t-127 -179t-171 -126.5t-206.5 -47.5q-167 0 -271 116t-104 302q0 132 47.5 269t127 247.5t195 181t241.5 70.5q172 0 275 -113.5t103 -302.5zM977 772q0 152 -73 248t-189 96q-75 0 -143 -45t-118 -120.5t-87.5 -172
t-56.5 -202.5t-19 -209q0 -157 72 -252t192 -95q84 0 156 51t119.5 132t81.5 182t49.5 200t15.5 187zM598 1507q35 0 59.5 -24.5t24.5 -59.5t-24.5 -60.5t-59.5 -25.5t-60.5 25.5t-25.5 60.5t25.5 59.5t60.5 24.5zM977 1507q35 0 59.5 -24.5t24.5 -59.5t-24.5 -60.5
t-59.5 -25.5t-60.5 25.5t-25.5 60.5t25.5 59.5t60.5 24.5z" />
    <glyph glyph-name="multiply" unicode="&#xd7;" horiz-adv-x="1368" 
d="M293 1020l422 -422l422 422l61 -62l-422 -421l422 -422l-61 -62l-422 422l-422 -422l-62 62l422 422l-422 421z" />
    <glyph glyph-name="Oslash" unicode="&#xd8;" horiz-adv-x="1153" 
d="M954 915l-610 -772q33 -56 87 -89.5t124 -33.5q84 0 156 51t119.5 132t81.5 182t49.5 200t15.5 187q0 89 -23 143zM1018 1057l100 127l29 -25l-107 -133q88 -94 88 -281q0 -102 -27.5 -209.5t-82 -207.5t-127 -179t-171 -126.5t-206.5 -47.5q-133 0 -238 82l-83 -104
l-31 24l88 111q-53 50 -82 130.5t-29 174.5q0 132 47.5 269t127 247.5t195 181t241.5 70.5q155 0 268 -104zM326 184l614 777q-78 155 -225 155q-75 0 -143 -45t-118 -120.5t-87.5 -172t-56.5 -202.5t-19 -209q0 -124 35 -183z" />
    <glyph glyph-name="Ugrave" unicode="&#xd9;" horiz-adv-x="1216" 
d="M885 313l135 645q9 46 10 78t-23.5 49t-80.5 17l8 35h369l-9 -35q-67 -10 -92 -40.5t-45 -125.5l-113 -537q-45 -213 -175.5 -318.5t-301.5 -105.5q-84 0 -157 28t-126 83.5t-72.5 137t1.5 188.5l117 546q10 48 9.5 79t-25 46.5t-81.5 18.5l9 35h370l-8 -35
q-65 -3 -90.5 -35.5t-46.5 -130.5l-117 -549q-20 -108 -7.5 -189.5t75 -129.5t168.5 -48q103 0 184 73.5t115 219.5zM586 1608h112l144 -394h-41z" />
    <glyph glyph-name="Uacute" unicode="&#xda;" horiz-adv-x="1216" 
d="M885 313l135 645q9 46 10 78t-23.5 49t-80.5 17l8 35h369l-9 -35q-67 -10 -92 -40.5t-45 -125.5l-113 -537q-45 -213 -175.5 -318.5t-301.5 -105.5q-84 0 -157 28t-126 83.5t-72.5 137t1.5 188.5l117 546q10 48 9.5 79t-25 46.5t-81.5 18.5l9 35h370l-8 -35
q-65 -3 -90.5 -35.5t-46.5 -130.5l-117 -549q-20 -108 -7.5 -189.5t75 -129.5t168.5 -48q103 0 184 73.5t115 219.5zM995 1608l-215 -394h-41l144 394h112z" />
    <glyph glyph-name="Ucircumflex" unicode="&#xdb;" horiz-adv-x="1216" 
d="M885 313l135 645q9 46 10 78t-23.5 49t-80.5 17l8 35h369l-9 -35q-67 -10 -92 -40.5t-45 -125.5l-113 -537q-45 -213 -175.5 -318.5t-301.5 -105.5q-84 0 -157 28t-126 83.5t-72.5 137t1.5 188.5l117 546q10 48 9.5 79t-25 46.5t-81.5 18.5l9 35h370l-8 -35
q-65 -3 -90.5 -35.5t-46.5 -130.5l-117 -549q-20 -108 -7.5 -189.5t75 -129.5t168.5 -48q103 0 184 73.5t115 219.5zM915 1608l127 -355h-41l-157 248l-279 -248h-47l326 355h71z" />
    <glyph glyph-name="Udieresis" unicode="&#xdc;" horiz-adv-x="1216" 
d="M885 313l135 645q9 46 10 78t-23.5 49t-80.5 17l8 35h369l-9 -35q-67 -10 -92 -40.5t-45 -125.5l-113 -537q-45 -213 -175.5 -318.5t-301.5 -105.5q-84 0 -157 28t-126 83.5t-72.5 137t1.5 188.5l117 546q10 48 9.5 79t-25 46.5t-81.5 18.5l9 35h370l-8 -35
q-65 -3 -90.5 -35.5t-46.5 -130.5l-117 -549q-20 -108 -7.5 -189.5t75 -129.5t168.5 -48q103 0 184 73.5t115 219.5zM631 1507q35 0 59.5 -24.5t24.5 -59.5t-24.5 -60.5t-59.5 -25.5t-60.5 25.5t-25.5 60.5t25.5 59.5t60.5 24.5zM1010 1507q35 0 59.5 -24.5t24.5 -59.5
t-24.5 -60.5t-59.5 -25.5t-60.5 25.5t-25.5 60.5t25.5 59.5t60.5 24.5z" />
    <glyph glyph-name="Yacute" unicode="&#xdd;" horiz-adv-x="937" 
d="M643 629l-92 -451q-16 -81 -10 -103q9 -35 74 -39q11 -1 24 -1l-8 -35h-363l8 35q60 8 87.5 31.5t39.5 83.5l95 454l-164 393q-26 64 -49.5 82t-85.5 23l8 35h338l-8 -35q-27 -1 -43 -8t-22.5 -17t-5 -27t6.5 -33t16 -42l127 -307l228 307q16 21 21.5 29t11.5 22t6 27
q0 27 -20 38t-70 11l8 35h293l-9 -35q-56 0 -93 -29t-89 -98zM895 1608l-215 -394h-41l143 394h113z" />
    <glyph glyph-name="Thorn" unicode="&#xde;" horiz-adv-x="831" 
d="M465 956l-19 -84q163 0 259 -78.5t96 -213.5q0 -139 -102.5 -238.5t-245.5 -99.5q-63 0 -136 18l-18 -80q-11 -47 -10.5 -79.5t23.5 -49t73 -16.5h25l-7 -35h-376l6 35q55 4 81.5 34.5t43.5 110.5l166 776q10 47 9.5 79.5t-23.5 49.5t-72 17h-25l6 35h377l-6 -35
q-55 -4 -81.5 -35t-43.5 -111zM434 813l-108 -512q43 -14 86 -14q107 0 172 75t65 199q0 116 -57 182.5t-158 69.5z" />
    <glyph glyph-name="germandbls" unicode="&#xdf;" horiz-adv-x="831" 
d="M-324 -508l25 107h37q-3 -56 21.5 -86.5t66.5 -30.5q82 0 133.5 77t85.5 232l240 1127q30 145 110 220.5t195 75.5q110 0 181 -67.5t71 -173.5q0 -100 -69.5 -183.5t-178.5 -93.5v-4q186 -59 186 -252q0 -118 -48 -221.5t-129 -165t-173 -61.5q-51 0 -94.5 24t-63.5 64
l45 86l27 -10q-10 -62 18.5 -95.5t69.5 -33.5q58 0 111 56.5t84.5 152t31.5 202.5q0 105 -47.5 166.5t-134.5 69.5l8 35q119 7 186.5 89t67.5 218q0 74 -40.5 119t-106.5 45q-73 0 -118.5 -59.5t-76.5 -190.5l-14 -62l-225 -1061q-37 -175 -129.5 -272.5t-208.5 -97.5
q-78 0 -144 55z" />
    <glyph glyph-name="agrave" unicode="&#xe0;" horiz-adv-x="831" 
d="M752 696l-109 -503q-14 -68 5 -99t81 -24l-8 -35l-240 -53l29 131l-4 4q-108 -140 -240 -140q-96 0 -146 54t-50 157q0 71 24.5 142t76.5 137t124 117t175.5 81.5t223.5 30.5h58zM616 621q-98 12 -181.5 -17t-137 -86.5t-83.5 -134t-30 -160.5q0 -78 37 -121t103 -43
q53 0 98.5 28t99.5 91zM356 1219h113l143 -394h-41z" />
    <glyph glyph-name="aacute" unicode="&#xe1;" horiz-adv-x="831" 
d="M752 696l-109 -503q-14 -68 5 -99t81 -24l-8 -35l-240 -53l29 131l-4 4q-108 -140 -240 -140q-96 0 -146 54t-50 157q0 71 24.5 142t76.5 137t124 117t175.5 81.5t223.5 30.5h58zM616 621q-98 12 -181.5 -17t-137 -86.5t-83.5 -134t-30 -160.5q0 -78 37 -121t103 -43
q53 0 98.5 28t99.5 91zM725 1219l-215 -394h-41l143 394h113z" />
    <glyph glyph-name="acircumflex" unicode="&#xe2;" horiz-adv-x="831" 
d="M752 696l-109 -503q-14 -68 5 -99t81 -24l-8 -35l-240 -53l29 131l-4 4q-108 -140 -240 -140q-96 0 -146 54t-50 157q0 71 24.5 142t76.5 137t124 117t175.5 81.5t223.5 30.5h58zM616 621q-98 12 -181.5 -17t-137 -86.5t-83.5 -134t-30 -160.5q0 -78 37 -121t103 -43
q53 0 98.5 28t99.5 91zM625 1219l127 -355h-41l-158 248l-279 -248h-47l326 355h72z" />
    <glyph glyph-name="atilde" unicode="&#xe3;" horiz-adv-x="831" 
d="M752 696l-109 -503q-14 -68 5 -99t81 -24l-8 -35l-240 -53l29 131l-4 4q-108 -140 -240 -140q-96 0 -146 54t-50 157q0 71 24.5 142t76.5 137t124 117t175.5 81.5t223.5 30.5h58zM616 621q-98 12 -181.5 -17t-137 -86.5t-83.5 -134t-30 -160.5q0 -78 37 -121t103 -43
q53 0 98.5 28t99.5 91zM776 1116h35q-3 -67 -52 -121.5t-106 -54.5q-54 0 -170 47q-107 47 -145 47q-31 0 -53 -24t-31 -68h-37q1 72 54.5 123t117.5 51q80 0 172 -47q6 -3 27.5 -13.5t29.5 -13.5t23.5 -9.5t26.5 -8.5t22 -2q34 0 57 25t29 69z" />
    <glyph glyph-name="adieresis" unicode="&#xe4;" horiz-adv-x="831" 
d="M752 696l-109 -503q-14 -68 5 -99t81 -24l-8 -35l-240 -53l29 131l-4 4q-108 -140 -240 -140q-96 0 -146 54t-50 157q0 71 24.5 142t76.5 137t124 117t175.5 81.5t223.5 30.5h58zM616 621q-98 12 -181.5 -17t-137 -86.5t-83.5 -134t-30 -160.5q0 -78 37 -121t103 -43
q53 0 98.5 28t99.5 91zM360 1118q35 0 59.5 -24.5t24.5 -59.5t-24.5 -60.5t-59.5 -25.5t-60.5 25.5t-25.5 60.5t25.5 59.5t60.5 24.5zM739 1118q35 0 59.5 -24.5t24.5 -59.5t-24.5 -60.5t-59.5 -25.5t-60.5 25.5t-25.5 60.5t25.5 59.5t60.5 24.5z" />
    <glyph glyph-name="aring" unicode="&#xe5;" horiz-adv-x="831" 
d="M752 696l-109 -503q-14 -68 5 -99t81 -24l-8 -35l-240 -53l29 131l-4 4q-108 -140 -240 -140q-96 0 -146 54t-50 157q0 71 24.5 142t76.5 137t124 117t175.5 81.5t223.5 30.5h58zM616 621q-98 12 -181.5 -17t-137 -86.5t-83.5 -134t-30 -160.5q0 -78 37 -121t103 -43
q53 0 98.5 28t99.5 91zM541 1206q73 0 125.5 -52t52.5 -126t-52.5 -126t-125.5 -52q-74 0 -126.5 52.5t-52.5 125.5t52.5 125.5t126.5 52.5zM541 1157q-54 0 -91.5 -37.5t-37.5 -91.5t37.5 -91.5t91.5 -37.5t91.5 37.5t37.5 91.5t-37.5 91.5t-91.5 37.5z" />
    <glyph glyph-name="ae" unicode="&#xe6;" horiz-adv-x="1159" 
d="M1065 207l27 -19q-46 -100 -123.5 -155.5t-171.5 -55.5q-89 0 -154.5 46.5t-85.5 123.5q-58 -81 -132 -125.5t-151 -44.5q-90 0 -146 60t-56 156q0 175 139 309q70 67 137.5 106.5t149.5 59.5q74 18 163.5 23t245.5 5q107 0 158 -27.5t51 -86.5q0 -101 -126.5 -179.5
t-319.5 -97.5q-24 -106 26 -170.5t142 -64.5q140 0 227 137zM551 193q-15 102 45 219t199 215q-76 10 -162 10q-128 0 -223.5 -51t-141.5 -119q-78 -116 -78 -252q0 -65 38 -107t96 -42q115 0 227 127zM678 342q72 4 147 31.5t128 74.5t53 99q0 33 -27 55.5t-66 22.5
q-78 0 -144 -80.5t-91 -202.5z" />
    <glyph glyph-name="ccedilla" unicode="&#xe7;" horiz-adv-x="618" 
d="M154 -182l71 164q-74 15 -118 79.5t-44 159.5q0 106 56.5 217t147.5 184.5t182 73.5q48 0 69 -6q5 -1 17 -3.5t18 -2.5q7 0 12.5 1t9 3t5.5 3.5t4.5 4.5t3.5 4h22l-22 -196h-29q3 64 -33.5 98.5t-95.5 34.5q-98 0 -172 -119t-74 -278q0 -88 37.5 -134.5t106.5 -46.5
q102 0 209 91l22 -25q-79 -76 -149 -112t-144 -36l-41 -94q94 -30 94 -112q0 -76 -69.5 -130t-198.5 -77l8 39q88 28 127 61t39 80q0 56 -71 74z" />
    <glyph glyph-name="egrave" unicode="&#xe8;" horiz-adv-x="661" 
d="M184 301q-14 -116 32.5 -172.5t129.5 -56.5q118 0 229 145l21 -27q-78 -119 -146 -166t-163 -47q-106 0 -163.5 59.5t-57.5 168.5q0 122 60.5 236.5t158.5 184.5t202 70q62 0 98 -31t36 -85q0 -91 -121 -170.5t-316 -108.5zM193 338q142 26 224.5 78t82.5 127
q0 31 -26 55.5t-60 24.5q-56 0 -107 -50t-80 -114.5t-34 -120.5zM270 1219h113l143 -394h-41z" />
    <glyph glyph-name="eacute" unicode="&#xe9;" horiz-adv-x="661" 
d="M184 301q-14 -116 32.5 -172.5t129.5 -56.5q118 0 229 145l21 -27q-78 -119 -146 -166t-163 -47q-106 0 -163.5 59.5t-57.5 168.5q0 122 60.5 236.5t158.5 184.5t202 70q62 0 98 -31t36 -85q0 -91 -121 -170.5t-316 -108.5zM193 338q142 26 224.5 78t82.5 127
q0 31 -26 55.5t-60 24.5q-56 0 -107 -50t-80 -114.5t-34 -120.5zM639 1219l-215 -394h-41l143 394h113z" />
    <glyph glyph-name="ecircumflex" unicode="&#xea;" horiz-adv-x="661" 
d="M184 301q-14 -116 32.5 -172.5t129.5 -56.5q118 0 229 145l21 -27q-78 -119 -146 -166t-163 -47q-106 0 -163.5 59.5t-57.5 168.5q0 122 60.5 236.5t158.5 184.5t202 70q62 0 98 -31t36 -85q0 -91 -121 -170.5t-316 -108.5zM193 338q142 26 224.5 78t82.5 127
q0 31 -26 55.5t-60 24.5q-56 0 -107 -50t-80 -114.5t-34 -120.5zM539 1219l127 -355h-41l-158 248l-279 -248h-47l326 355h72z" />
    <glyph glyph-name="edieresis" unicode="&#xeb;" horiz-adv-x="661" 
d="M184 301q-14 -116 32.5 -172.5t129.5 -56.5q118 0 229 145l21 -27q-78 -119 -146 -166t-163 -47q-106 0 -163.5 59.5t-57.5 168.5q0 122 60.5 236.5t158.5 184.5t202 70q62 0 98 -31t36 -85q0 -91 -121 -170.5t-316 -108.5zM193 338q142 26 224.5 78t82.5 127
q0 31 -26 55.5t-60 24.5q-56 0 -107 -50t-80 -114.5t-34 -120.5zM274 1118q35 0 59.5 -24.5t24.5 -59.5t-24.5 -60.5t-59.5 -25.5t-60.5 25.5t-25.5 60.5t25.5 59.5t60.5 24.5zM653 1118q35 0 59.5 -24.5t24.5 -59.5t-24.5 -60.5t-59.5 -25.5t-60.5 25.5t-25.5 60.5
t25.5 59.5t60.5 24.5z" />
    <glyph glyph-name="igrave" unicode="&#xec;" horiz-adv-x="491" 
d="M399 692l-110 -524q-19 -91 -3 -112t105 -21l-6 -35h-360l8 35q75 0 95.5 16t35.5 88l80 371q12 46 2 72t-53 26q-3 0 -80 -10l8 41l237 53h41zM197 1219h112l144 -394h-41z" />
    <glyph glyph-name="iacute" unicode="&#xed;" horiz-adv-x="491" 
d="M399 692l-110 -524q-19 -91 -3 -112t105 -21l-6 -35h-360l8 35q75 0 95.5 16t35.5 88l80 371q12 46 2 72t-53 26q-3 0 -80 -10l8 41l237 53h41zM565 1219l-215 -394h-41l144 394h112z" />
    <glyph glyph-name="icircumflex" unicode="&#xee;" horiz-adv-x="491" 
d="M399 692l-110 -524q-19 -91 -3 -112t105 -21l-6 -35h-360l8 35q75 0 95.5 16t35.5 88l80 371q12 46 2 72t-53 26q-3 0 -80 -10l8 41l237 53h41zM465 1219l127 -355h-41l-158 248l-278 -248h-47l325 355h72z" />
    <glyph glyph-name="idieresis" unicode="&#xef;" horiz-adv-x="491" 
d="M399 692l-110 -524q-19 -91 -3 -112t105 -21l-6 -35h-360l8 35q75 0 95.5 16t35.5 88l80 371q12 46 2 72t-53 26q-3 0 -80 -10l8 41l237 53h41zM201 1118q35 0 59.5 -24.5t24.5 -59.5t-24.5 -60.5t-59.5 -25.5t-60.5 25.5t-25.5 60.5t25.5 59.5t60.5 24.5zM580 1118
q35 0 59.5 -24.5t24.5 -59.5t-24.5 -60.5t-59.5 -25.5t-60.5 25.5t-25.5 60.5t25.5 59.5t60.5 24.5z" />
    <glyph glyph-name="eth" unicode="&#xf0;" horiz-adv-x="733" 
d="M578 455q0 84 -43 133t-117 49q-98 0 -173 -124t-75 -288q0 -86 37 -137t100 -51q29 0 65.5 15.5t59.5 41.5q68 75 107 172t39 189zM854 1184l-215 -101q66 -189 66 -434q0 -158 -34 -277.5t-108 -217.5q-133 -177 -287 -177q-105 0 -166 64.5t-61 173.5q0 89 36.5 177.5
t94.5 155t135.5 107.5t155.5 41q64 0 119 -43q18 220 -25 396l-209 -97l-20 45l215 101q-17 68 -53 147l45 25q49 -61 78 -140l213 99z" />
    <glyph glyph-name="ntilde" unicode="&#xf1;" horiz-adv-x="854" 
d="M356 694l-26 -119l4 -4q78 74 125.5 99.5t105.5 25.5q98 0 155 -67t30 -197l-66 -315q-10 -52 7.5 -67t88.5 -15l-6 -35h-334l6 35q66 5 88 23.5t35 82.5l70 326q13 66 -19.5 106.5t-91.5 40.5q-92 0 -211 -125l-69 -333q-18 -70 -2.5 -95.5t88.5 -25.5l-6 -35h-297l6 35
q38 6 58 28.5t30 73.5l80 375q10 48 -5 71t-42 23q-28 0 -78 -12l10 45l225 55h41zM797 1116h34q-3 -67 -51.5 -121.5t-105.5 -54.5q-54 0 -170 47q-107 47 -146 47q-31 0 -53 -24t-31 -68h-36q1 72 54.5 123t117.5 51q80 0 172 -47q6 -3 27.5 -13.5t29.5 -13.5t23.5 -9.5
t26.5 -8.5t22 -2q34 0 57 25t29 69z" />
    <glyph glyph-name="ograve" unicode="&#xf2;" horiz-adv-x="747" 
d="M698 465q0 -56 -18.5 -122t-55.5 -130.5t-85.5 -117t-116 -85.5t-139.5 -33q-94 0 -153.5 67t-59.5 171q0 89 36.5 177.5t94.5 155t135.5 107.5t155.5 41q83 0 144.5 -68.5t61.5 -162.5zM578 455q0 76 -39.5 129t-100.5 53q-98 0 -173 -124t-75 -288q0 -86 37.5 -137
t100.5 -51q101 0 175.5 124.5t74.5 293.5zM324 1219h112l144 -394h-41z" />
    <glyph glyph-name="oacute" unicode="&#xf3;" horiz-adv-x="747" 
d="M698 465q0 -56 -18.5 -122t-55.5 -130.5t-85.5 -117t-116 -85.5t-139.5 -33q-94 0 -153.5 67t-59.5 171q0 89 36.5 177.5t94.5 155t135.5 107.5t155.5 41q83 0 144.5 -68.5t61.5 -162.5zM578 455q0 76 -39.5 129t-100.5 53q-98 0 -173 -124t-75 -288q0 -86 37.5 -137
t100.5 -51q101 0 175.5 124.5t74.5 293.5zM692 1219l-215 -394h-41l144 394h112z" />
    <glyph glyph-name="ocircumflex" unicode="&#xf4;" horiz-adv-x="747" 
d="M698 465q0 -56 -18.5 -122t-55.5 -130.5t-85.5 -117t-116 -85.5t-139.5 -33q-94 0 -153.5 67t-59.5 171q0 89 36.5 177.5t94.5 155t135.5 107.5t155.5 41q83 0 144.5 -68.5t61.5 -162.5zM578 455q0 76 -39.5 129t-100.5 53q-98 0 -173 -124t-75 -288q0 -86 37.5 -137
t100.5 -51q101 0 175.5 124.5t74.5 293.5zM592 1219l127 -355h-41l-158 248l-278 -248h-47l325 355h72z" />
    <glyph glyph-name="otilde" unicode="&#xf5;" horiz-adv-x="747" 
d="M698 465q0 -56 -18.5 -122t-55.5 -130.5t-85.5 -117t-116 -85.5t-139.5 -33q-94 0 -153.5 67t-59.5 171q0 89 36.5 177.5t94.5 155t135.5 107.5t155.5 41q83 0 144.5 -68.5t61.5 -162.5zM578 455q0 76 -39.5 129t-100.5 53q-98 0 -173 -124t-75 -288q0 -86 37.5 -137
t100.5 -51q101 0 175.5 124.5t74.5 293.5zM743 1116h35q-3 -67 -51.5 -121.5t-105.5 -54.5q-54 0 -170 47q-107 47 -146 47q-31 0 -53 -24t-31 -68h-37q1 72 54.5 123t117.5 51q80 0 172 -47q6 -3 27.5 -13.5t29.5 -13.5t23.5 -9.5t26.5 -8.5t22 -2q34 0 57 25t29 69z" />
    <glyph glyph-name="odieresis" unicode="&#xf6;" horiz-adv-x="747" 
d="M698 465q0 -56 -18.5 -122t-55.5 -130.5t-85.5 -117t-116 -85.5t-139.5 -33q-94 0 -153.5 67t-59.5 171q0 89 36.5 177.5t94.5 155t135.5 107.5t155.5 41q83 0 144.5 -68.5t61.5 -162.5zM578 455q0 76 -39.5 129t-100.5 53q-98 0 -173 -124t-75 -288q0 -86 37.5 -137
t100.5 -51q101 0 175.5 124.5t74.5 293.5zM328 1118q35 0 59.5 -24.5t24.5 -59.5t-24.5 -60.5t-59.5 -25.5t-60.5 25.5t-25.5 60.5t25.5 59.5t60.5 24.5zM707 1118q35 0 59.5 -24.5t24.5 -59.5t-24.5 -60.5t-59.5 -25.5t-60.5 25.5t-25.5 60.5t25.5 59.5t60.5 24.5z" />
    <glyph glyph-name="divide" unicode="&#xf7;" horiz-adv-x="1368" 
d="M713 195q26 0 43.5 -18t17.5 -44t-17.5 -43.5t-43.5 -17.5t-44 17.5t-18 43.5t18 44t44 18zM713 1004q26 0 43.5 -18t17.5 -44t-17.5 -43.5t-43.5 -17.5t-44 17.5t-18 43.5t18 44t44 18zM176 582h1075v-88h-1075v88z" />
    <glyph glyph-name="oslash" unicode="&#xf8;" horiz-adv-x="747" 
d="M567 522l-356 -403q16 -37 46.5 -59.5t70.5 -22.5q101 0 175.5 125.5t74.5 294.5q0 39 -11 65zM625 637l61 70l25 -21l-66 -74q53 -58 53 -147q0 -56 -18.5 -122t-55.5 -130.5t-85.5 -117t-116 -85.5t-139.5 -33q-92 0 -146 58l-59 -68l-25 21l64 73q-20 22 -33.5 65.5
t-13.5 88.5q0 89 36.5 177.5t94.5 155t135.5 107.5t155.5 41q81 0 133 -59zM199 154l356 403q-17 38 -48.5 59t-68.5 21q-64 0 -121.5 -56.5t-92 -151.5t-34.5 -202q0 -43 9 -73z" />
    <glyph glyph-name="ugrave" unicode="&#xf9;" horiz-adv-x="854" 
d="M797 696l-103 -493q-10 -44 -10 -86q0 -38 17.5 -52t68.5 -10l-8 -35l-236 -38l29 131l-4 4q-85 -75 -145.5 -107.5t-116.5 -32.5q-71 0 -115.5 49.5t-44.5 127.5q0 52 14 118l52 238q11 54 -1.5 75t-60.5 21q-15 0 -31 -2l7 35l202 57h41l-94 -450q-12 -65 -12 -82
q0 -45 30 -77t72 -32q49 0 108 34.5t113 94.5l72 334q9 44 -6.5 67t-48.5 23q-15 0 -39 -4l6 35l203 57h41zM377 1219h112l144 -394h-41z" />
    <glyph glyph-name="uacute" unicode="&#xfa;" horiz-adv-x="854" 
d="M797 696l-103 -493q-10 -44 -10 -86q0 -38 17.5 -52t68.5 -10l-8 -35l-236 -38l29 131l-4 4q-85 -75 -145.5 -107.5t-116.5 -32.5q-71 0 -115.5 49.5t-44.5 127.5q0 52 14 118l52 238q11 54 -1.5 75t-60.5 21q-15 0 -31 -2l7 35l202 57h41l-94 -450q-12 -65 -12 -82
q0 -45 30 -77t72 -32q49 0 108 34.5t113 94.5l72 334q9 44 -6.5 67t-48.5 23q-15 0 -39 -4l6 35l203 57h41zM745 1219l-215 -394h-41l144 394h112z" />
    <glyph glyph-name="ucircumflex" unicode="&#xfb;" horiz-adv-x="854" 
d="M797 696l-103 -493q-10 -44 -10 -86q0 -38 17.5 -52t68.5 -10l-8 -35l-236 -38l29 131l-4 4q-85 -75 -145.5 -107.5t-116.5 -32.5q-71 0 -115.5 49.5t-44.5 127.5q0 52 14 118l52 238q11 54 -1.5 75t-60.5 21q-15 0 -31 -2l7 35l202 57h41l-94 -450q-12 -65 -12 -82
q0 -45 30 -77t72 -32q49 0 108 34.5t113 94.5l72 334q9 44 -6.5 67t-48.5 23q-15 0 -39 -4l6 35l203 57h41zM645 1219l127 -355h-41l-158 248l-278 -248h-47l325 355h72z" />
    <glyph glyph-name="udieresis" unicode="&#xfc;" horiz-adv-x="854" 
d="M797 696l-103 -493q-10 -44 -10 -86q0 -38 17.5 -52t68.5 -10l-8 -35l-236 -38l29 131l-4 4q-85 -75 -145.5 -107.5t-116.5 -32.5q-71 0 -115.5 49.5t-44.5 127.5q0 52 14 118l52 238q11 54 -1.5 75t-60.5 21q-15 0 -31 -2l7 35l202 57h41l-94 -450q-12 -65 -12 -82
q0 -45 30 -77t72 -32q49 0 108 34.5t113 94.5l72 334q9 44 -6.5 67t-48.5 23q-15 0 -39 -4l6 35l203 57h41zM381 1118q35 0 59.5 -24.5t24.5 -59.5t-24.5 -60.5t-59.5 -25.5t-60.5 25.5t-25.5 60.5t25.5 59.5t60.5 24.5zM760 1118q35 0 59.5 -24.5t24.5 -59.5t-24.5 -60.5
t-59.5 -25.5t-60.5 25.5t-25.5 60.5t25.5 59.5t60.5 24.5z" />
    <glyph glyph-name="yacute" unicode="&#xfd;" horiz-adv-x="747" 
d="M782 674l-8 -35q-35 -3 -58 -17.5t-33 -28t-36 -60.5q-5 -8 -8 -13l-387 -700q-56 -102 -87.5 -146.5t-74.5 -87.5q-75 -75 -161 -118t-169 -43q-3 0 -51 6l39 110q165 -1 285.5 95t222.5 288l-47 576q-5 64 -13.5 92t-23 37t-47.5 10l8 35h301l-8 -35q-75 0 -94 -22.5
t-13 -94.5l35 -426h4l222 404q38 70 38 96q0 23 -14.5 33t-48.5 10l8 35h219zM754 1219l-215 -394h-41l143 394h113z" />
    <glyph glyph-name="thorn" unicode="&#xfe;" horiz-adv-x="788" 
d="M473 1219l-133 -611l4 -4q100 92 213 92q86 0 145.5 -71t59.5 -174q0 -83 -38.5 -165t-107 -150.5t-175.5 -111t-232 -42.5l-68 -316q-11 -53 -11 -81t12 -42t40 -14q24 0 70 10l-10 -47l-228 -55h-41l336 1567q15 64 1 96.5t-60 32.5q-10 0 -57 -7l8 35l237 58h35z
M328 543l-105 -492q31 -4 72 -4q153 0 249.5 106.5t96.5 272.5q0 88 -43 141.5t-115 53.5q-40 0 -74.5 -17.5t-80.5 -60.5z" />
    <glyph glyph-name="ydieresis" unicode="&#xff;" horiz-adv-x="747" 
d="M782 674l-8 -35q-35 -3 -58 -17.5t-33 -28t-36 -60.5q-5 -8 -8 -13l-387 -700q-56 -102 -87.5 -146.5t-74.5 -87.5q-75 -75 -161 -118t-169 -43q-3 0 -51 6l39 110q165 -1 285.5 95t222.5 288l-47 576q-5 64 -13.5 92t-23 37t-47.5 10l8 35h301l-8 -35q-75 0 -94 -22.5
t-13 -94.5l35 -426h4l222 404q38 70 38 96q0 23 -14.5 33t-48.5 10l8 35h219zM328 1118q35 0 59.5 -24.5t24.5 -59.5t-24.5 -60.5t-59.5 -25.5t-60.5 25.5t-25.5 60.5t25.5 59.5t60.5 24.5zM707 1118q35 0 59.5 -24.5t24.5 -59.5t-24.5 -60.5t-59.5 -25.5t-60.5 25.5
t-25.5 60.5t25.5 59.5t60.5 24.5z" />
    <glyph glyph-name="dotlessi" unicode="&#x131;" horiz-adv-x="491" 
d="M399 692l-110 -524q-19 -91 -3 -112t105 -21l-6 -35h-360l8 35q75 0 95.5 16t35.5 88l80 371q12 46 2 72t-53 26q-3 0 -80 -10l8 41l237 53h41z" />
    <glyph glyph-name="Lslash" unicode="&#x141;" horiz-adv-x="831" 
d="M780 176l-55 -176h-711l9 35q66 8 92 35t43 106l61 281l-4 4l-221 -205l18 82l221 197l89 419q23 80 7 114t-102 34l6 35h371l-6 -35q-63 -4 -90.5 -34.5t-44.5 -113.5l-60 -286l5 -4l231 217l-14 -76l-238 -215l-92 -422q-26 -123 113 -123h67q126 0 184 28.5t89 102.5
h32z" />
    <glyph glyph-name="lslash" unicode="&#x142;" horiz-adv-x="491" 
d="M502 1219l-119 -545l4 -4l197 166l-19 -66l-190 -154l-101 -466q-16 -72 -3 -93.5t75 -21.5h41l-8 -35h-369l6 35h25q16 0 28.5 2t22.5 3.5t18 9t14 11.5t12 19t9 23t8.5 31t8.5 36.5t10 46.5l68 307l-4 4l-205 -172l12 58l207 170l96 452q9 45 -2.5 65.5t-52.5 20.5
q-29 0 -76 -8l6 37l240 68h41z" />
    <glyph glyph-name="OE" unicode="&#x152;" horiz-adv-x="1515" 
d="M1509 1137l-39 -183h-38q0 33 -1 51t-8 34.5t-15.5 23t-30.5 11.5t-45 6t-66 1h-158l-102 -467h176q78 0 111 19.5t53 79.5h36l-57 -262h-35q-7 64 -39.5 86t-120.5 22h-135l-71 -338q-21 -94 2.5 -130t111.5 -36h95q120 0 181 39t120 160h36l-88 -254h-626
q-64 0 -142 -4q-74 -4 -86 -4q-180 0 -284.5 117t-104.5 315q0 140 52.5 274t138.5 233.5t202.5 160.5t237.5 61q35 0 117 -8t104 -8h518zM799 260l143 674q17 79 -33 126.5t-149 47.5q-84 0 -156.5 -37.5t-122 -100t-87.5 -139t-60 -160t-32.5 -156.5t-10.5 -134
q0 -157 71 -250.5t191 -93.5q95 0 159 58t87 165z" />
    <glyph glyph-name="oe" unicode="&#x153;" horiz-adv-x="1173" 
d="M1092 211l28 -16q-119 -218 -307 -218q-157 0 -217 183q-57 -87 -139 -135t-172 -48q-91 0 -152 67t-61 165q0 123 60 236.5t158.5 182t205.5 68.5q78 0 132 -37t79 -106q143 143 282 143q69 0 107.5 -31t38.5 -87q0 -90 -123.5 -173.5t-325.5 -101.5q-15 -97 34 -163
t144 -66q67 0 121 33t107 104zM193 252q0 -99 39 -157t106 -58q63 0 115 47.5t82.5 118.5t46.5 142.5t16 129.5q0 73 -40.5 117.5t-106.5 44.5q-115 0 -191 -131q-67 -116 -67 -254zM1022 543q0 38 -28.5 62t-71.5 24q-71 0 -136.5 -76.5t-91.5 -214.5q130 10 229 73t99 132
z" />
    <glyph glyph-name="Scaron" unicode="&#x160;" horiz-adv-x="831" 
d="M811 1163l-47 -221h-37q7 59 -21 100.5t-67.5 57.5t-81.5 16q-87 0 -143 -61.5t-56 -130.5q0 -78 37.5 -145.5t134.5 -178.5q115 -134 139 -170q45 -65 49 -144q1 -14 1 -30q0 -122 -95 -201.5t-241 -79.5q-65 0 -137.5 20.5t-83.5 20.5q-19 0 -28.5 -9.5t-18.5 -35.5
h-41l47 219h39q26 -77 93 -123.5t153 -46.5q77 0 130.5 56.5t53.5 138.5q0 58 -39.5 124t-132.5 169t-131.5 173.5t-38.5 154.5q0 134 94.5 229.5t226.5 95.5q59 0 114.5 -17.5t64.5 -17.5q3 0 5 0.5t4 2t3 3t3 5t3 6.5t3.5 9t4.5 11h37zM535 1253l-127 355h41l157 -248
l279 248h47l-326 -355h-71z" />
    <glyph glyph-name="scaron" unicode="&#x161;" horiz-adv-x="512" 
d="M510 686l-35 -164h-33l-4 19q-10 51 -43.5 79.5t-81.5 28.5q-41 0 -70.5 -25.5t-29.5 -60.5t22 -74t53.5 -75t62.5 -74t53 -83.5t22 -90.5q0 -85 -71 -137t-185 -52q-41 0 -74 11l-22 6q-12 0 -31 -12h-35l37 176h37q-13 -58 23 -99t85 -41q55 0 95.5 32.5t40.5 76.5
q0 34 -20.5 73t-50 74t-59.5 70t-50.5 72.5t-20.5 70.5q0 87 64 148t157 61q23 0 48.5 -4t41.5 -8t17 -4q6 0 10 1t7.5 2.5t6.5 2.5h33zM317 864l-127 355h41l158 -248l279 248h47l-326 -355h-72z" />
    <glyph glyph-name="Ydieresis" unicode="&#x178;" horiz-adv-x="937" 
d="M643 629l-92 -451q-16 -81 -10 -103q9 -35 74 -39q11 -1 24 -1l-8 -35h-363l8 35q60 8 87.5 31.5t39.5 83.5l95 454l-164 393q-26 64 -49.5 82t-85.5 23l8 35h338l-8 -35q-27 -1 -43 -8t-22.5 -17t-5 -27t6.5 -33t16 -42l127 -307l228 307q16 21 21.5 29t11.5 22t6 27
q0 27 -20 38t-70 11l8 35h293l-9 -35q-56 0 -93 -29t-89 -98zM532 1507q35 0 59.5 -24.5t24.5 -59.5t-24.5 -60.5t-59.5 -25.5t-60.5 25.5t-25.5 60.5t25.5 59.5t60.5 24.5zM911 1507q35 0 59.5 -24.5t24.5 -59.5t-24.5 -60.5t-59.5 -25.5t-60.5 25.5t-25.5 60.5t25.5 59.5
t60.5 24.5z" />
    <glyph glyph-name="Zcaron" unicode="&#x17d;" horiz-adv-x="1044" 
d="M1094 1092l-861 -1047h408q115 0 168.5 29.5t89.5 118.5h35l-41 -193h-854l8 35l877 1057h-371q-72 0 -116 -17t-69.5 -51t-48.5 -98h-34l45 211h772zM641 1253l-127 355h41l158 -248l278 248h47l-325 -355h-72z" />
    <glyph glyph-name="zcaron" unicode="&#x17e;" horiz-adv-x="747" 
d="M717 674v-35l-539 -604h230q95 0 133 26.5t61 106.5h35l-35 -168h-569v35l534 604h-215q-78 0 -116.5 -26.5t-57.5 -92.5h-35l33 154h541zM416 864l-127 355h41l157 -248l279 248h47l-326 -355h-71z" />
    <glyph glyph-name="florin" unicode="&#x192;" horiz-adv-x="1280" 
d="M956 674v-56h-149l-135 -727q-22 -117 -66 -204.5t-91.5 -133.5t-106.5 -74t-99 -35t-80 -7q-152 0 -235 47l33 151h34q38 -157 175 -157q53 0 106 21t84 52q54 54 85 143.5t58 231.5l127 692h-141v56h152l63 293q30 137 118.5 220t213.5 83q54 0 139 -27l6 25h41
l-37 -185h-41q-15 75 -46 110.5t-85 35.5q-72 0 -123.5 -67t-74.5 -175l-66 -313h141z" />
    <glyph glyph-name="circumflex" unicode="&#x2c6;" horiz-adv-x="681" 
d="M559 1219l127 -355h-41l-158 248l-278 -248h-47l325 355h72z" />
    <glyph glyph-name="caron" unicode="&#x2c7;" horiz-adv-x="681" 
d="M391 864l-127 355h41l158 -248l278 248h47l-325 -355h-72z" />
    <glyph glyph-name="uni02C9" unicode="&#x2c9;" horiz-adv-x="681" 
d="M207 1063h522l-20 -84h-523z" />
    <glyph glyph-name="breve" unicode="&#x2d8;" horiz-adv-x="681" 
d="M657 1167h39q-37 -132 -110.5 -211t-161.5 -79q-74 0 -119.5 76t-23.5 214h38q1 -93 29.5 -137.5t85.5 -44.5q63 0 124 50t99 132z" />
    <glyph glyph-name="dotaccent" unicode="&#x2d9;" horiz-adv-x="681" 
d="M481 1118q35 0 59.5 -24.5t24.5 -59.5t-24.5 -60.5t-59.5 -25.5t-60.5 25.5t-25.5 60.5t25.5 59.5t60.5 24.5z" />
    <glyph glyph-name="ring" unicode="&#x2da;" horiz-adv-x="681" 
d="M475 1206q73 0 125.5 -52t52.5 -126t-52.5 -126t-125.5 -52t-125.5 52t-52.5 126t52.5 126t125.5 52zM475 1157q-54 0 -91.5 -37.5t-37.5 -91.5t37.5 -91.5t91.5 -37.5t91.5 37.5t37.5 91.5t-37.5 91.5t-91.5 37.5z" />
    <glyph glyph-name="ogonek" unicode="&#x2db;" horiz-adv-x="681" 
d="M276 8h48q-81 -67 -126.5 -143.5t-45.5 -147.5q0 -79 63 -79q51 0 96 40l19 -20q-29 -38 -75 -63t-89 -25q-56 0 -87.5 29t-31.5 82q0 70 61 158.5t168 168.5z" />
    <glyph glyph-name="tilde" unicode="&#x2dc;" horiz-adv-x="681" 
d="M711 1116h34q-3 -67 -51.5 -121.5t-105.5 -54.5q-54 0 -170 47q-107 47 -146 47q-31 0 -53 -24t-31 -68h-36q1 72 54.5 123t117.5 51q80 0 172 -47q6 -3 27.5 -13.5t29.5 -13.5t23.5 -9.5t26.5 -8.5t22 -2q34 0 57 25t29 69z" />
    <glyph glyph-name="hungarumlaut" unicode="&#x2dd;" horiz-adv-x="681" 
d="M780 1219l-215 -394h-41l144 394h112zM563 1219l-215 -394h-41l144 394h112z" />
    <glyph glyph-name="uni03A9" unicode="&#x3a9;" horiz-adv-x="1179" 
d="M1137 0h-414v209q79 39 134 118t78 165.5t23 175.5q0 223 -86 350t-249 127q-86 0 -153 -36t-108 -101t-62 -150.5t-21 -187.5q0 -158 67 -292t182 -175v-203h-424v240h43q0 -33 3 -52.5t12.5 -40t31 -29.5t56.5 -9h209v51q-142 51 -241 186t-99 320q0 247 139 391.5
t365 144.5q111 0 206 -42.5t159 -114t100 -167t36 -200.5q0 -102 -35 -201t-112 -184.5t-184 -126.5v-57h196q35 0 57.5 9t32 29.5t12.5 40t3 52.5h43v-240z" />
    <glyph glyph-name="uni03BC" unicode="&#x3bc;" horiz-adv-x="1024" 
d="M168 139l115 557h120l-104 -487q-16 -70 17.5 -110t80.5 -40q50 0 110.5 33t113.5 92l108 512h119l-105 -493q-19 -82 -10 -115t58 -33h28l-8 -35l-233 -38l28 131l-4 4q-85 -75 -146 -107.5t-118 -32.5q-44 0 -76 19t-63 65q-27 -82 -27 -270q0 -141 -78 -141
q-31 0 -51 18.5t-20 46.5q0 21 15 55.5t36 74t48 119t46 175.5z" />
    <glyph glyph-name="pi" unicode="&#x3c0;" horiz-adv-x="753" 
d="M743 141q-15 -77 -46 -119t-74 -42q-57 0 -84 53q-31 47 -31 182v403h-174v-288q0 -221 -51 -291q-39 -59 -95 -59q-21 0 -37 15.5t-16 39.5q0 33 51 53q51 14 65.5 76t14.5 196v258h-37q-41 0 -66.5 -23t-35.5 -77l-43 10q3 92 47 143.5t119 51.5h473v-105h-148v-352
q0 -102 19 -151q15 -41 47 -41q47 0 72 90z" />
    <glyph glyph-name="endash" unicode="&#x2013;" horiz-adv-x="1024" 
d="M-12 408h1048v-46h-1048v46z" />
    <glyph glyph-name="emdash" unicode="&#x2014;" horiz-adv-x="2048" 
d="M-12 408h2072v-46h-2072v46z" />
    <glyph glyph-name="quoteleft" unicode="&#x2018;" horiz-adv-x="376" 
d="M506 1219l-8 -37q-78 -22 -122 -73.5t-44 -125.5q88 -17 88 -88q0 -38 -25 -63t-63 -25q-45 0 -73 35t-28 92q0 101 77.5 181.5t197.5 103.5z" />
    <glyph glyph-name="quoteright" unicode="&#x2019;" horiz-adv-x="532" 
d="M180 807l8 37q78 22 122 73t44 125q-88 17 -88 88q0 38 25 63.5t63 25.5q45 0 73 -35t28 -92q0 -101 -77.5 -181.5t-197.5 -103.5z" />
    <glyph glyph-name="quotesinglbase" unicode="&#x201a;" horiz-adv-x="532" 
d="M31 -256l8 37q78 22 122 73.5t44 125.5q-88 17 -88 88q0 38 25 63t63 25q44 0 72 -35t28 -92q0 -101 -77 -181.5t-197 -103.5z" />
    <glyph glyph-name="quotedblleft" unicode="&#x201c;" horiz-adv-x="677" 
d="M506 1219l-8 -37q-78 -22 -122 -73.5t-44 -125.5q88 -17 88 -88q0 -38 -25 -63t-63 -25q-45 0 -73 35t-28 92q0 101 77.5 181.5t197.5 103.5zM807 1219l-8 -37q-78 -22 -122 -73.5t-44 -125.5q88 -17 88 -88q0 -38 -25 -63t-63 -25q-45 0 -73 35t-28 92q0 101 77.5 181.5
t197.5 103.5z" />
    <glyph glyph-name="quotedblright" unicode="&#x201d;" horiz-adv-x="532" 
d="M135 807l8 37q78 22 122 73t44 125q-88 17 -88 88q0 38 25 63.5t63 25.5q45 0 73 -35t28 -92q0 -101 -77.5 -181.5t-197.5 -103.5zM436 807l8 37q78 22 122 73t44 125q-88 17 -88 88q0 38 25 63.5t63 25.5q45 0 73 -35t28 -92q0 -101 -77.5 -181.5t-197.5 -103.5z" />
    <glyph glyph-name="quotedblbase" unicode="&#x201e;" horiz-adv-x="532" 
d="M182 -279l8 37q78 22 122 73.5t44 125.5q-88 17 -88 88q0 38 25 63t63 25q45 0 73 -35t28 -92q0 -101 -77.5 -181.5t-197.5 -103.5zM-119 -279l8 37q78 22 122 73.5t44 125.5q-88 17 -88 88q0 38 25 63t63 25q45 0 73 -35t28 -92q0 -101 -77.5 -181.5t-197.5 -103.5z" />
    <glyph glyph-name="dagger" unicode="&#x2020;" horiz-adv-x="937" 
d="M561 723q66 0 167.5 24.5t135.5 24.5q31 0 50.5 -18.5t19.5 -48.5q0 -34 -22 -53t-62 -19q-28 0 -62.5 13.5t-92.5 27.5t-142 14q-34 -144 20 -262q-81 -160 -129 -352l-141 -561h-35q42 195 67.5 330t40 250t14.5 194.5t-15 138.5q51 53 81.5 110.5t59.5 151.5
q-87 0 -185 -27.5t-120 -27.5q-33 0 -54.5 19.5t-21.5 49.5q0 32 22.5 51t61.5 19q26 0 127 -24.5t176 -24.5q17 60 17.5 103t-6.5 94t-7 90q0 63 24.5 100t65.5 37q32 0 52 -21t20 -55q0 -42 -24 -92.5t-56.5 -118t-46.5 -137.5z" />
    <glyph glyph-name="daggerdbl" unicode="&#x2021;" horiz-adv-x="937" 
d="M676 1079q0 -34 -18 -75.5t-47.5 -104.5t-47.5 -127q88 0 172.5 19.5t106.5 19.5q32 0 51.5 -14t19.5 -37q0 -30 -19 -47t-52 -17q-35 0 -110 19t-177 22q-31 -67 23 -205q-53 -53 -86 -126.5t-33 -137.5q0 -56 33 -141q-44 -47 -73.5 -102t-35.5 -101q75 0 172 27
q84 26 111 26q31 0 51 -18.5t20 -46.5q0 -31 -19.5 -48.5t-53.5 -17.5q-29 0 -117 21t-172 22q-11 -70 -11.5 -123t4.5 -95.5t5 -57.5q0 -43 -23 -71.5t-57 -28.5q-31 0 -50.5 19.5t-19.5 51.5q0 39 21 84.5t51 104.5t43 116q-97 -2 -182 -24q-14 -3 -32.5 -8t-31.5 -8
t-26 -3q-78 0 -78 68q0 29 20 46t53 17q25 0 59 -11.5t91 -25t135 -16.5q30 86 -20 203q67 87 90.5 144.5t23.5 131.5t-28 129q44 54 64 92.5t42 112.5q-73 0 -127.5 -10.5t-89 -20.5t-57.5 -10q-34 0 -57 16.5t-23 41.5q0 28 21.5 43.5t58.5 15.5q23 0 46.5 -6.5t44 -14
t71 -14t120.5 -6.5q8 46 9 95t-2 103.5t-3 71.5q0 47 21 76t57 29q31 0 49.5 -18.5t18.5 -49.5z" />
    <glyph glyph-name="bullet" unicode="&#x2022;" horiz-adv-x="716" 
d="M201 676q0 95 67 162t162 67t162 -67t67 -162t-67 -162.5t-162 -67.5t-162 67.5t-67 162.5z" />
    <glyph glyph-name="onedotenleader" unicode="&#x2024;" horiz-adv-x="1024" 
d="M512 143q40 0 68 -28.5t28 -69.5q0 -40 -28 -68t-68 -28t-68 28t-28 68q0 41 28 69.5t68 28.5z" />
    <glyph glyph-name="twodotenleader" unicode="&#x2025;" horiz-adv-x="2048" 
d="M512 143q40 0 68 -28.5t28 -69.5q0 -40 -28 -68t-68 -28t-68 28t-28 68q0 41 28 69.5t68 28.5zM1536 143q40 0 68 -28.5t28 -69.5q0 -40 -28 -68t-68 -28t-68 28t-28 68q0 41 28 69.5t68 28.5z" />
    <glyph glyph-name="ellipsis" unicode="&#x2026;" horiz-adv-x="2048" 
d="M1024 143q40 0 68 -28t28 -68t-28 -69t-68 -29t-69 29t-29 69t29 68t69 28zM342 143q40 0 68 -28t28 -68t-28 -69t-68 -29t-69 29t-29 69t29 68t69 28zM1706 143q40 0 68 -28t28 -68t-28 -69t-68 -29t-69 29t-29 69t29 68t69 28z" />
    <glyph glyph-name="perthousand" unicode="&#x2030;" horiz-adv-x="2111" 
d="M446 1159q-50 0 -96 -52.5t-74 -139.5t-28 -181q0 -82 29 -134t73 -52q30 0 64 25.5t65.5 71.5t52.5 121.5t21 162.5q0 76 -30.5 127t-76.5 51zM477 1196q76 0 129 -63t53 -154q0 -100 -48 -197.5t-125.5 -158t-157.5 -60.5t-133.5 62.5t-53.5 156.5q0 101 48 197.5
t126.5 156.5t161.5 60zM1280 1196h59l-1085 -1196h-59zM2021 406q0 -100 -48 -197.5t-125.5 -158t-157.5 -60.5t-133.5 62.5t-53.5 156.5q0 101 48 197.5t126.5 156.5t161.5 60q76 0 129 -63t53 -154zM1915 408q0 76 -30.5 127t-76.5 51q-50 0 -96 -52.5t-74 -139.5
t-28 -181q0 -82 29 -134t73 -52q30 0 64 25.5t65.5 71.5t52.5 121.5t21 162.5zM1389 406q0 -100 -48.5 -197.5t-126 -158t-157.5 -60.5t-133.5 62.5t-53.5 156.5q0 101 48 197.5t126.5 156.5t161.5 60q77 0 130 -63t53 -154zM1282 408q0 77 -30 127.5t-76 50.5
q-50 0 -96 -52.5t-74.5 -139.5t-28.5 -181q0 -82 29 -134t73 -52q30 0 64 25.5t65.5 71.5t52.5 121.5t21 162.5z" />
    <glyph glyph-name="guilsinglleft" unicode="&#x2039;" horiz-adv-x="555" 
d="M483 707l-270 -390l39 -366h-39l-121 397l348 359h43z" />
    <glyph glyph-name="guilsinglright" unicode="&#x203a;" horiz-adv-x="555" 
d="M80 -49l270 389l-39 367h39l121 -398l-348 -358h-43z" />
    <glyph glyph-name="fraction" unicode="&#x2044;" horiz-adv-x="256" 
d="M647 1196h60l-1088 -1196h-68z" />
    <glyph glyph-name="colonmonetary" unicode="&#x20a1;" horiz-adv-x="1003" 
d="M600 -20l-47 -226h-41l45 223q-51 0 -77 3.5t-70 19.5l-50 -246h-41l54 262q-113 57 -175.5 179.5t-62.5 269.5q0 124 42 242t109.5 206t151.5 150.5t170 87.5l15 74h41l-13 -64q28 8 76 8t76 -8l14 64h39l-14 -72q6 -1 41.5 -10.5t42.5 -9.5q32 0 63 51h35l-41 -203h-37
q-12 26 -21.5 41t-34.5 38t-59 38l-217 -1047q170 6 312 213l20 -31q-19 -31 -33 -52t-48 -59t-67.5 -63.5t-86.5 -48.5t-111 -30zM639 1106l-207 -997q72 -50 141 -56l220 1061q-35 10 -60 10q-46 0 -94 -18zM399 139l195 948q-83 -42 -145 -117t-95.5 -162t-49 -170.5
t-15.5 -162.5q0 -219 110 -336z" />
    <glyph glyph-name="Euro" unicode="&#x20ac;" horiz-adv-x="937" 
d="M958 1219l-55 -275h-37q-3 58 -21 101t-45.5 65.5t-55.5 32.5t-58 10q-125 0 -238.5 -127.5t-154.5 -339.5h457l-11 -45h-452q-9 -57 -11 -104h447l-10 -45h-437v-7q-1 -208 82.5 -321t206.5 -113q90 0 161 44t134 153l31 -29q-77 -132 -166 -187t-209 -55
q-167 0 -274.5 141t-106.5 361v13h-92l10 45h84q2 36 15 104h-97l11 45h96q58 216 206 364t316 148q44 0 109.5 -16.5t72.5 -16.5q27 0 56 54h36z" />
    <glyph glyph-name="litre" unicode="&#x2113;" horiz-adv-x="610" 
d="M602 186q-70 -206 -227 -206q-89 0 -142 53q-65 62 -65 190v113q-12 -17 -54 -64l-42 -47l-37 45q6 7 29 32t38.5 42t35 41t30.5 41v418q0 153 59 255.5t160 102.5q75 0 112.5 -48t37.5 -124q0 -173 -125 -397q-74 -126 -95 -148v-262q0 -79 27 -120.5t68 -41.5
q79 0 135 148zM475 1026q0 113 -76 113q-37 0 -59.5 -54.5t-22.5 -166.5v-322q46 80 56 102q48 84 75 172.5t27 155.5z" />
    <glyph glyph-name="trademark" unicode="&#x2122;" horiz-adv-x="2007" 
d="M274 549v35h31q54 0 71 30.5t17 120.5v574h-114q-66 0 -96.5 -33.5t-35.5 -101.5h-34v184h684v-184h-35q-10 84 -39.5 109.5t-114.5 25.5h-92v-555q0 -104 19.5 -137t80.5 -33h19v-35h-361zM858 1358h242l293 -627l288 627h232v-33h-31q-51 -3 -69.5 -23t-18.5 -73v-488
q0 -56 3 -83.5t17 -45t34.5 -22t62.5 -6.5v-35h-346v35q75 0 95.5 28t20.5 129v496h-4l-307 -688h-16l-318 676h-4v-535q0 -71 18.5 -88.5t96.5 -17.5v-35h-289v35q76 0 97.5 19t21.5 95v514q0 63 -23.5 85t-95.5 28v33z" />
    <glyph glyph-name="Omega" unicode="&#x2126;" horiz-adv-x="1179" 
d="M1137 0h-414v209q79 39 134 118t78 165.5t23 175.5q0 223 -86 350t-249 127q-86 0 -153 -36t-108 -101t-62 -150.5t-21 -187.5q0 -158 67 -292t182 -175v-203h-424v240h43q0 -33 3 -52.5t12.5 -40t31 -29.5t56.5 -9h209v51q-142 51 -241 186t-99 320q0 247 139 391.5
t365 144.5q111 0 206 -42.5t159 -114t100 -167t36 -200.5q0 -102 -35 -201t-112 -184.5t-184 -126.5v-57h196q35 0 57.5 9t32 29.5t12.5 40t3 52.5h43v-240z" />
    <glyph glyph-name="estimated" unicode="&#x212e;" horiz-adv-x="1075" 
d="M1010 477h-738v-346q106 -106 263 -106q117 0 210 58.5t156 166.5l47 -27q-82 -122 -177.5 -182.5t-235.5 -60.5t-247 67t-162.5 179t-55.5 251q0 140 55 252.5t162 179t248 66.5q216 0 342.5 -140t132.5 -358zM799 524v295q-113 113 -264 113q-154 0 -263 -109v-299h527
z" />
    <glyph glyph-name="onethird" unicode="&#x2153;" horiz-adv-x="1536" 
d="M315 672l91 379q8 35 8 47q0 18 -15 18q-4 0 -35 -6t-36 -8l6 33l164 63h37l-121 -514q0 -3 -4 -23t-4 -28q0 -29 38 -29h37l-8 -31h-264l10 31h29q37 0 47.5 11.5t19.5 56.5zM225 -10l1086 1206h59l-1085 -1206h-60zM909 74l25 22q85 -51 158 -51q46 0 82 18t55.5 45.5
t29 54t9.5 48.5q0 36 -20.5 58t-49.5 27t-61 7t-56 -2l9 29q34 8 57 14.5t57.5 20t55.5 29t37 40t16 53.5q0 44 -27.5 63t-58.5 19q-60 0 -140 -61l-26 22q51 51 108.5 73t106.5 22q66 0 105.5 -34t39.5 -77q0 -110 -176 -172q56 -19 94.5 -58.5t38.5 -90.5
q0 -84 -76 -143.5t-182 -59.5q-53 0 -99.5 17t-66.5 31t-45 36z" />
    <glyph glyph-name="twothirds" unicode="&#x2154;" horiz-adv-x="1536" 
d="M565 639l-14 -66h-404v27q67 51 127 102.5t123.5 115t101.5 126.5t38 111q0 42 -26 66t-67 24q-71 0 -159 -88l-33 20q23 24 39 38.5t47 37.5t68 35t77 12q60 0 110 -33.5t50 -89.5q0 -83 -81.5 -177.5t-301.5 -260.5h305zM225 -10l1086 1206h59l-1085 -1206h-60zM909 74
l25 22q85 -51 158 -51q46 0 82 18t55.5 45.5t29 54t9.5 48.5q0 36 -20.5 58t-49.5 27t-61 7t-56 -2l9 29q34 8 57 14.5t57.5 20t55.5 29t37 40t16 53.5q0 44 -27.5 63t-58.5 19q-60 0 -140 -61l-26 22q51 51 108.5 73t106.5 22q66 0 105.5 -34t39.5 -77q0 -110 -176 -172
q56 -19 94.5 -58.5t38.5 -90.5q0 -84 -76 -143.5t-182 -59.5q-53 0 -99.5 17t-66.5 31t-45 36z" />
    <glyph glyph-name="oneeighth" unicode="&#x215b;" horiz-adv-x="1536" 
d="M1067 467q0 61 64.5 110.5t142.5 49.5q65 0 106 -32.5t41 -80.5q0 -27 -15.5 -53t-41.5 -47t-51.5 -37.5t-52.5 -32.5q-8 -4 -11 -6q86 -107 86 -182q0 -64 -56.5 -115t-150.5 -51q-85 0 -128.5 39t-43.5 90q0 64 78 127q20 17 109 73q-46 58 -61 90t-15 58zM1042 115
q0 -34 27.5 -61t67.5 -27q39 0 71.5 24.5t32.5 79.5q0 39 -16 70.5t-60 89.5q-26 -17 -39 -27.5t-37 -34t-35.5 -52t-11.5 -62.5zM1311 1196h59l-1085 -1206h-60zM1157 500q0 -55 70 -135q108 59 108 135q0 36 -26.5 61t-63.5 25q-40 0 -64 -26.5t-24 -59.5zM315 672l91 379
q8 35 8 47q0 18 -15 18q-4 0 -35 -6t-36 -8l6 33l164 63h37l-121 -514q0 -3 -4 -23t-4 -28q0 -29 38 -29h37l-8 -31h-264l10 31h29q37 0 47.5 11.5t19.5 56.5z" />
    <glyph glyph-name="threeeighths" unicode="&#x215c;" horiz-adv-x="1536" 
d="M1077 467q0 61 64.5 110.5t142.5 49.5q65 0 106.5 -32.5t41.5 -80.5q0 -27 -15.5 -53t-41.5 -47t-51.5 -37.5t-52.5 -32.5q-8 -4 -11 -6q86 -107 86 -182q0 -64 -56.5 -115t-150.5 -51q-85 0 -128.5 39t-43.5 90q0 65 77 127q20 17 109 73q-46 58 -61 90t-15 58z
M1053 115q0 -34 27 -61t67 -27q39 0 71.5 24.5t32.5 79.5q0 39 -16 71t-59 89q-26 -17 -39 -27.5t-37 -34t-35.5 -52t-11.5 -62.5zM1321 1196h59l-1085 -1206h-59zM1167 500q0 -55 70 -135q109 59 109 135q0 36 -27 61t-64 25q-40 0 -64 -26.5t-24 -59.5zM131 649l25 23
l21 -12t25.5 -13.5t22.5 -9.5q43 -16 88 -16q46 0 82 17.5t55.5 44.5t29 53.5t9.5 49.5q0 35 -20 57t-49 27.5t-61 8t-56 -1.5l8 28q34 8 57.5 14.5t57.5 20.5t55.5 29.5t37.5 40t16 53.5q0 44 -27.5 63t-58.5 19q-59 0 -140 -62l-26 23q94 94 215 94q67 0 106 -33.5
t39 -76.5q0 -110 -176 -172q56 -18 94.5 -58.5t38.5 -91.5q0 -84 -76 -143.5t-182 -59.5q-53 0 -99.5 17t-66.5 31t-45 36z" />
    <glyph glyph-name="fiveeighths" unicode="&#x215d;" horiz-adv-x="1536" 
d="M1249 338q86 -107 86 -182q0 -64 -56.5 -115t-150.5 -51q-85 0 -128.5 39t-43.5 90q0 64 78 127q20 17 109 73q-46 58 -61 90t-15 58q0 61 64.5 110.5t142.5 49.5q65 0 106 -32.5t41 -80.5q0 -27 -15.5 -53t-41.5 -47t-51.5 -37.5t-52.5 -32.5q-8 -4 -11 -6zM1165 291
q-26 -17 -39 -27.5t-37 -34t-35.5 -52t-11.5 -62.5t27.5 -61t67.5 -27q39 0 71.5 24.5t32.5 79.5q0 39 -16 70.5t-60 89.5zM1309 1196h59l-1085 -1206h-60zM1227 365q108 59 108 135q0 36 -26.5 61t-63.5 25q-40 0 -64 -26.5t-24 -59.5q0 -55 70 -135zM670 1184l-25 -56
h-246l-61 -227q16 4 57 4q45 0 89.5 -14.5t79 -51t34.5 -87.5q0 -78 -66 -133.5t-170 -55.5q-18 0 -36 2t-31.5 4.5t-28.5 7.5t-24 9t-21.5 10.5t-17.5 9.5t-15 9.5t-12 7.5l23 26q78 -47 145 -47t107.5 47.5t40.5 100.5q0 31 -11.5 54t-27 35.5t-35.5 19.5t-33.5 9t-24.5 2
q-20 0 -77 -8l86 322h301z" />
    <glyph glyph-name="seveneighths" unicode="&#x215e;" horiz-adv-x="1536" 
d="M1065 467q0 61 64.5 110.5t142.5 49.5q65 0 106 -32.5t41 -80.5q0 -27 -15.5 -53t-41.5 -47t-51.5 -37.5t-52.5 -32.5q-8 -4 -11 -6q86 -107 86 -182q0 -64 -56.5 -115t-150.5 -51q-85 0 -128.5 39t-43.5 90q0 64 78 127q20 17 109 73q-46 58 -61 90t-15 58zM1040 115
q0 -34 27.5 -61t67.5 -27q39 0 71.5 24.5t32.5 79.5q0 39 -16 70.5t-60 89.5q-26 -17 -39 -27.5t-37 -34t-35.5 -52t-11.5 -62.5zM1309 1196h59l-1085 -1206h-60zM1155 500q0 -55 70 -135q108 59 108 135q0 36 -26.5 61t-63.5 25q-40 0 -64 -26.5t-24 -59.5zM207 1047
l49 137h420v-23l-318 -594h-108l354 551h-215q-27 0 -38 -0.5t-28.5 -3.5t-26.5 -10.5t-20.5 -21t-23.5 -35.5h-45z" />
    <glyph glyph-name="partialdiff" unicode="&#x2202;" horiz-adv-x="849" 
d="M799 788q0 -96 -25 -230.5t-59 -227.5q-67 -181 -155.5 -267t-213.5 -86q-131 0 -198.5 96t-67.5 244q0 126 45 229.5t133 166.5t203 63q96 0 156.5 -49t82.5 -109h5q6 83 6 142q0 60 -12.5 116.5t-37.5 107t-72 81.5t-108 31q-148 0 -248 -121l-30 33q27 39 52 67.5
t63.5 59.5t89 48t110.5 17q281 0 281 -412zM690 535q-8 29 -22 57.5t-37.5 56.5t-60.5 45t-81 17q-109 0 -186.5 -119.5t-77.5 -302.5q0 -242 158 -242q60 0 112.5 43.5t90 116.5t63 155t41.5 173z" />
    <glyph glyph-name="Delta" unicode="&#x2206;" horiz-adv-x="950" 
d="M1012 0h-928l-2 47l436 1188h115zM840 72l-312 989l-364 -989h676z" />
    <glyph glyph-name="product" unicode="&#x220f;" horiz-adv-x="1099" 
d="M1063 -231h-365v41h27q50 0 66 33.5t16 95.5v1169h-455v-1169q0 -30 2.5 -49.5t9.5 -39.5t23.5 -30t42.5 -10h29v-41h-363v41h27q50 0 65 33t15 96v1065q0 32 -2 50.5t-9.5 38.5t-24.5 28.5t-44 8.5h-27v44h967v-44h-27q-27 0 -44 -9t-25 -27.5t-10.5 -38.5t-2.5 -51
v-1065q0 -63 16 -96t66 -33h27v-41z" />
    <glyph glyph-name="summation" unicode="&#x2211;" horiz-adv-x="856" 
d="M856 29l-20 -260h-791l-2 47l395 655l-381 655v48h754l12 -228h-39q-6 93 -28.5 127.5t-89.5 34.5h-455l346 -576l-393 -643h520q70 0 94 29.5t35 114.5z" />
    <glyph glyph-name="minus" unicode="&#x2212;" horiz-adv-x="1366" 
d="M176 582h1075v-88h-1075v88z" />
    <glyph glyph-name="uni2215" unicode="&#x2215;" horiz-adv-x="256" 
d="M647 1196h60l-1088 -1196h-68z" />
    <glyph glyph-name="uni2219" unicode="&#x2219;" horiz-adv-x="559" 
d="M281 696q35 0 60.5 -25.5t25.5 -60.5t-25.5 -61.5t-60.5 -26.5t-61.5 26.5t-26.5 61.5t26.5 60.5t61.5 25.5z" />
    <glyph glyph-name="radical" unicode="&#x221a;" horiz-adv-x="657" 
d="M506 1264l-127 -1284h-84l-164 583l-74 -51l-32 49l168 113l143 -539h2l113 1129h55z" />
    <glyph glyph-name="infinity" unicode="&#x221e;" horiz-adv-x="1140" 
d="M858 246q-90 0 -145.5 43.5t-102.5 126.5h-2q-103 -170 -252 -170q-101 0 -166 65t-65 174q0 107 63.5 175.5t163.5 68.5q157 0 238 -166h2q51 80 110.5 123t149.5 43q96 0 160.5 -64.5t64.5 -172.5q0 -107 -63.5 -176.5t-155.5 -69.5zM860 662q-32 0 -60 -11t-46 -23.5
t-41 -44t-33.5 -49t-36.5 -61.5q39 -79 90 -119.5t125 -40.5q76 0 117 52t41 120q0 78 -39 127.5t-117 49.5zM354 662q-75 0 -121.5 -48.5t-46.5 -126.5q0 -80 43.5 -127t118.5 -47q37 0 70.5 18.5t61 53.5t43 60.5t34.5 62.5q-29 64 -80.5 109t-122.5 45z" />
    <glyph glyph-name="integral" unicode="&#x222b;" horiz-adv-x="423" 
d="M428 1184q0 -22 -9 -39t-30 -17t-45 21q-28 20 -45 20q-34 0 -37 -59q-1 -31 10 -111t15 -135q20 -188 20 -428q0 -283 -10 -389q-18 -218 -35 -278q-17 -61 -43.5 -93t-75.5 -32q-36 0 -65 22t-29 58q0 23 12.5 39t36.5 16q20 0 41 -27q11 -14 35 -14q10 0 17 4.5
t14 27.5t8 66q2 19 -1.5 53.5t-12 91t-11.5 76.5q-16 181 -16 375q0 181 8 348q13 264 29 353q13 66 44.5 99.5t74.5 33.5q44 0 72 -25.5t28 -56.5z" />
    <glyph glyph-name="approxequal" unicode="&#x2248;" horiz-adv-x="1366" 
d="M1268 870q-37 -89 -113 -142.5t-182 -53.5q-128 0 -299 82q-46 23 -107.5 38t-111.5 15q-89 0 -140 -34.5t-96 -106.5l-57 30q13 35 34 66t56 62.5t89.5 50t121.5 18.5q122 0 278 -76q127 -59 242 -59q76 0 128.5 35.5t96.5 105.5zM1268 446q-37 -89 -113 -142.5
t-182 -53.5q-128 0 -299 82q-46 23 -107.5 38t-111.5 15q-89 0 -140 -34.5t-96 -106.5l-57 30q13 35 34 66t56 62.5t89.5 50t121.5 18.5q122 0 278 -76q127 -59 242 -59q75 0 127.5 35.5t97.5 105.5z" />
    <glyph glyph-name="notequal" unicode="&#x2260;" horiz-adv-x="1366" 
d="M1251 385h-673l-146 -250h-88l143 250h-311v88h365l215 375h-580v88h631l188 330h90l-188 -330h354v-88h-407l-213 -375h620v-88z" />
    <glyph glyph-name="lessequal" unicode="&#x2264;" horiz-adv-x="1366" 
d="M1253 0h-1079v82h1079v-82zM1253 195l-1079 467v61l1079 467v-92l-958 -404l958 -405v-94z" />
    <glyph glyph-name="greaterequal" unicode="&#x2265;" horiz-adv-x="1366" 
d="M1253 0h-1079v82h1079v-82zM1253 662l-1079 -467v92l959 403l-959 406v94l1079 -467v-61z" />
    <glyph glyph-name="lozenge" unicode="&#x25ca;" horiz-adv-x="614" 
d="M633 606l-262 -626h-72l-254 626l254 629h74zM555 606l-219 531l-213 -531l213 -528z" />
    <glyph glyph-name="zero.fitted" unicode="&#xf639;" horiz-adv-x="937" 
d="M909 770q0 -187 -81 -372.5t-209.5 -303t-258.5 -117.5q-125 0 -208.5 123t-83.5 306q0 189 81.5 374.5t209.5 301.5t257 116q118 0 205.5 -120.5t87.5 -307.5zM770 786q0 163 -58 262t-153 99q-60 0 -122.5 -56.5t-113.5 -152.5t-83.5 -237t-32.5 -295q0 -182 60 -279.5
t136 -97.5q103 0 189 112.5t132 285t46 359.5z" />
    <glyph glyph-name="two.fitted" unicode="&#xf63a;" horiz-adv-x="821" 
d="M627 104l-23 -104h-645l8 35q192 175 325 320t202 251.5t98 183t29 142.5q0 84 -50.5 137t-130.5 53q-125 0 -278 -166l-23 21q94 111 181 166t186 55q107 0 180.5 -66.5t73.5 -164.5q0 -167 -151.5 -355.5t-520.5 -507.5h539z" />
    <glyph glyph-name="three.fitted" unicode="&#xf63b;" horiz-adv-x="847" 
d="M240 1008l-25 24q71 78 161 122t181 44q97 0 161 -57.5t64 -145.5q0 -220 -319 -333v-5q112 -28 180 -109.5t68 -187.5q0 -158 -122.5 -270.5t-293.5 -112.5q-186 0 -336 160l25 25q78 -53 135 -74.5t125 -21.5q70 0 128 26t92.5 65t58.5 86.5t33 87t9 70.5t-9.5 61
t-33.5 63t-75 53t-123 20q-37 0 -72 -2l8 35q180 40 279.5 122.5t99.5 194.5q0 75 -46.5 123.5t-117.5 48.5q-56 0 -109 -25.5t-126 -86.5z" />
    <glyph glyph-name="four.fitted" unicode="&#xf63c;" horiz-adv-x="960" 
d="M889 391l-19 -82h-206l-66 -325h-127l64 325h-535l8 35l791 858h45l-164 -811h209zM672 1012l-570 -621h449l125 617z" />
    <glyph glyph-name="five.fitted" unicode="&#xf63d;" horiz-adv-x="786" 
d="M786 1174l-32 -82h-410l-111 -478q62 11 107 11q148 0 239 -80.5t91 -210.5q0 -155 -107 -256t-270 -101q-166 0 -293 109l20 29q128 -82 242 -82q54 0 100.5 22t76.5 55.5t51 75t30.5 78.5t9.5 68q0 107 -69 179.5t-176 72.5q-14 0 -105 -11l139 601h467z" />
    <glyph glyph-name="six.fitted" unicode="&#xf63e;" horiz-adv-x="917" 
d="M895 1200v-26q-207 -32 -357.5 -174t-273.5 -422l4 -5q127 168 289 168q108 0 183 -86.5t75 -212.5q0 -120 -59.5 -227.5t-159 -172.5t-209.5 -65q-130 0 -213.5 103.5t-83.5 263.5q0 153 67.5 305t177.5 268t258 193.5t302 89.5zM485 659q-111 0 -186.5 -99.5
t-75.5 -248.5q0 -71 19 -127.5t49.5 -89t65 -49t69.5 -16.5q111 0 183.5 108t72.5 260q0 118 -54.5 190t-142.5 72z" />
    <glyph glyph-name="seven.fitted" unicode="&#xf63f;" horiz-adv-x="806" 
d="M889 1174l-8 -37l-529 -1137h-139l602 1067h-438q-79 0 -120.5 -31t-84.5 -108h-37l78 246h676z" />
    <glyph glyph-name="eight.fitted" unicode="&#xf640;" horiz-adv-x="833" 
d="M664 289q0 -132 -95.5 -222t-236.5 -90q-120 0 -195.5 66.5t-75.5 171.5q0 98 74.5 190.5t245.5 206.5q-73 105 -102 165t-29 122q0 114 103 206.5t229 92.5q98 0 161.5 -58t63.5 -147q0 -81 -68.5 -163t-224.5 -177q150 -221 150 -364zM360 967q0 -60 30 -124t102 -161
q210 126 210 283q0 73 -48 127.5t-113 54.5q-77 0 -129 -52t-52 -128zM547 242q0 74 -37 153t-109 178q-123 -86 -179 -172.5t-56 -187.5q0 -78 52.5 -131t127.5 -53q89 0 145 59t56 154z" />
    <glyph glyph-name="nine.fitted" unicode="&#xf641;" horiz-adv-x="897" 
d="M61 -23v27q205 32 355.5 174.5t275.5 421.5l-4 4q-129 -168 -289 -168q-109 0 -183.5 87t-74.5 214q0 120 59.5 227t159 171.5t209.5 64.5q129 0 213 -102.5t84 -263.5q0 -153 -68 -305t-178.5 -268.5t-258.5 -194t-300 -89.5zM471 518q110 0 186 100.5t76 247.5
q0 133 -60 208t-143 75q-47 0 -91.5 -23t-81.5 -67t-60 -116.5t-23 -162.5q0 -119 54 -190.5t143 -71.5z" />
    <glyph glyph-name="zero.taboldstyle" unicode="&#xf643;" horiz-adv-x="937" 
d="M74 315q0 97 41.5 199t111 184.5t171 135.5t210.5 53q94 0 163 -49t100.5 -121t31.5 -154q0 -99 -41.5 -202t-110.5 -186t-169 -136t-207 -53q-143 0 -222 95.5t-79 233.5zM215 317q0 -121 61 -199.5t158 -78.5q75 0 140 51.5t105 130t62.5 166t22.5 166.5
q0 117 -58.5 200t-158.5 83q-77 0 -142 -50t-105 -128.5t-62.5 -167.5t-22.5 -173z" />
    <glyph glyph-name="one.taboldstyle" unicode="&#xf644;" horiz-adv-x="937" 
d="M389 197l80 405q18 94 18 117q0 26 -14 37.5t-29 11.5q-18 0 -65 -12v39l233 90h35l-135 -688q-14 -69 -14 -93q0 -67 92 -67h31l-9 -37h-399l8 37q36 0 58 1.5t40.5 10.5t27 16t17.5 30.5t13 41t12 60.5z" />
    <glyph glyph-name="two.taboldstyle" unicode="&#xf645;" horiz-adv-x="937" 
d="M721 102v-102h-651v35q151 102 219 149.5t157.5 117.5t124.5 115t61.5 103t26.5 119q0 81 -39.5 124.5t-101.5 43.5q-136 0 -270 -152l-29 21q181 211 369 211q55 0 96 -17t62.5 -44.5t31.5 -58t10 -62.5q0 -38 -8.5 -75t-20.5 -69t-38 -68t-47.5 -63t-62.5 -64
t-70.5 -62t-84 -65t-90 -65.5t-100.5 -71.5h455z" />
    <glyph glyph-name="three.taboldstyle" unicode="&#xf646;" horiz-adv-x="937" 
d="M31 -139l20 26q107 -69 207 -69q72 0 139.5 36t112.5 105.5t45 155.5q0 53 -18.5 93.5t-49.5 63t-66.5 34t-74.5 11.5q-38 0 -84 -8v35q36 7 76 18.5t93.5 37t94.5 57.5t70 82t29 108q0 82 -53.5 127t-116.5 45q-55 0 -95.5 -21.5t-105.5 -76.5l-25 27q43 45 91.5 75.5
t91.5 43t69.5 16.5t48.5 4q15 0 36.5 -3t55.5 -15.5t61 -32.5t47 -58.5t20 -89.5q0 -101 -79.5 -182t-203.5 -133q18 -5 33 -10t45 -18.5t53 -33.5t46.5 -48t36.5 -69.5t13 -91.5q0 -138 -117 -242t-266 -104q-29 0 -64 5t-99 30.5t-117 69.5z" />
    <glyph glyph-name="four.taboldstyle" unicode="&#xf647;" horiz-adv-x="937" 
d="M846 86v-86h-230l-75 -369h-117l74 369h-543v35l807 850h35l-162 -799h211zM514 86l129 616l-588 -616h459z" />
    <glyph glyph-name="five.taboldstyle" unicode="&#xf648;" horiz-adv-x="937" 
d="M817 858v-76h-371l-94 -473q3 0 25.5 2t32.5 2q56 0 112 -20t102.5 -55.5t75.5 -92.5t29 -125q0 -67 -28 -130t-77.5 -112t-124 -78.5t-161.5 -29.5q-157 0 -289 109l25 28q74 -52 120.5 -73t110.5 -21q131 0 208 92.5t77 219.5q0 55 -18 100t-44 71.5t-59.5 44.5
t-61.5 24.5t-51 6.5q-48 0 -120 -20l124 606h457z" />
    <glyph glyph-name="six.taboldstyle" unicode="&#xf649;" horiz-adv-x="937" 
d="M930 1223v-35q-205 -44 -370 -196.5t-267 -407.5q23 26 35 38.5t44.5 41t61 43.5t72.5 28t90 13q104 0 175 -93.5t71 -210.5q0 -57 -17.5 -119t-53.5 -121.5t-85 -107t-116.5 -77t-143.5 -29.5q-136 0 -222.5 95t-86.5 271q0 153 65.5 301t175 263t259.5 196t313 107z
M254 311q0 -138 61 -209t140 -71q23 0 52 8.5t66 34t67 64t50.5 105.5t20.5 152q0 66 -14.5 116t-36.5 78.5t-52.5 46.5t-57 24t-54.5 6q-89 0 -165.5 -99.5t-76.5 -255.5z" />
    <glyph glyph-name="seven.taboldstyle" unicode="&#xf64a;" horiz-adv-x="937" 
d="M418 80l315 690h-352q-40 0 -63.5 -1.5t-52 -9.5t-45.5 -22.5t-32.5 -42t-25.5 -67.5h-33l47 235h737l-335 -733q-145 -317 -283 -424q-56 -44 -125.5 -71.5t-130.5 -26.5v31q51 9 99.5 40.5t85 71.5t74.5 100t63.5 111t56.5 119z" />
    <glyph glyph-name="eight.taboldstyle" unicode="&#xf64b;" horiz-adv-x="937" 
d="M330 799q0 112 96.5 206.5t218.5 94.5q84 0 141.5 -55t57.5 -140q0 -87 -68 -167.5t-201 -170.5q3 -5 43 -71t46 -80q43 -89 43 -170q0 -27 -10.5 -59.5t-36 -68t-61 -64.5t-91 -47.5t-121.5 -18.5q-55 0 -97.5 15t-66 36.5t-39 49t-20 48.5t-4.5 39q0 48 18.5 93
t42 76.5t69 70t73 58t81.5 54.5q-114 161 -114 271zM438 864q0 -50 22 -105.5t91 -158.5q31 18 62 42.5t65 59.5t55 80.5t21 91.5q0 25 -7.5 52t-23.5 54.5t-48 45.5t-75 18q-74 0 -118 -54t-44 -126zM256 217q0 -15 2 -32t12 -45t26 -49t49 -36.5t77 -15.5q80 0 123 57.5
t43 116.5q0 45 -21 99.5t-42 89.5t-62 96q-207 -133 -207 -281z" />
    <glyph glyph-name="nine.taboldstyle" unicode="&#xf64c;" horiz-adv-x="937" 
d="M23 -354v37q62 16 100 28.5t91 35.5t102 57.5t98 82.5q197 188 262 402q-30 -34 -49.5 -52.5t-59.5 -49.5t-88 -46.5t-102 -15.5q-48 0 -90.5 19.5t-71.5 50.5t-49.5 70.5t-30.5 80t-10 78.5q0 75 29 154.5t80.5 148t132 112.5t172.5 44q79 0 140 -31t97 -85t54 -120.5
t18 -142.5q0 -110 -35 -216.5t-93.5 -192t-119.5 -150t-127 -115.5q-65 -50 -130.5 -85t-128.5 -54.5t-100.5 -28t-90.5 -16.5zM256 487q0 -131 56 -206.5t155 -75.5q94 0 171 103.5t77 248.5q0 113 -55 198t-148 85q-103 0 -179.5 -101.5t-76.5 -251.5z" />
    <glyph glyph-name="one.fitted" unicode="&#xf6dc;" horiz-adv-x="598" 
d="M510 1202l-205 -1014q-18 -88 -1 -120.5t77 -32.5h37l-8 -35h-404l8 35h31q61 0 87 20.5t38 79.5l166 783q14 61 14 98q0 23 -12.5 37t-34.5 14q-21 0 -98 -20l8 36l266 119h31z" />
    <glyph glyph-name="rupiah" unicode="&#xf6dd;" horiz-adv-x="1748" 
d="M426 592l-84 -416q-12 -54 -12 -76q0 -65 102 -65l-6 -35h-367l9 35q25 3 43.5 8.5t31.5 16.5t21 19t14.5 28t9.5 30.5t9 38.5l190 914q-92 -11 -190 -127l-31 18q122 180 358 180q173 0 269 -83t96 -199q0 -106 -65 -175t-179 -98q82 -26 129 -106t164 -371
q20 -51 38 -70t48 -24l-8 -35h-299l10 35q74 0 74 49q0 20 -16.5 67.5t-40.5 102.5t-47.5 106t-41.5 88.5t-18 38.5q-62 122 -211 105zM532 1102l-98 -467q48 -6 64 -6q51 0 92.5 13t76.5 41t54.5 80t19.5 124q0 190 -209 215zM1298 696l-18 -92q109 90 221 90
q92 0 147.5 -76t55.5 -169q0 -97 -48.5 -190.5t-137.5 -158.5q-52 -38 -97 -61t-95 -34.5t-82.5 -15t-96.5 -7.5l-60 -316q-12 -61 -12 -86q0 -51 51 -51q16 0 64 10v-43l-223 -59h-41l221 1044q10 38 10 72q0 26 -13 41.5t-52 15.5q-32 0 -56 -6v35l224 57h38zM1268 543
l-101 -492q36 -4 70 -4q74 0 135 24.5t100 63.5t65.5 89.5t38 101t11.5 100.5q0 53 -16 92.5t-42 60t-52 30t-52 9.5q-78 0 -157 -75z" />
    <glyph glyph-name="threequartersemdash" unicode="&#xf6de;" horiz-adv-x="2048" 
d="M246 408h1556v-46h-1556v46z" />
    <glyph glyph-name="zerooldstyle" unicode="&#xf730;" horiz-adv-x="958" 
d="M84 315q0 97 41.5 199t111 184.5t171 135.5t210.5 53q94 0 163 -49t100.5 -121t31.5 -154q0 -99 -41.5 -202t-110.5 -186t-169 -136t-207 -53q-143 0 -222 95.5t-79 233.5zM225 317q0 -121 61 -199.5t158 -78.5q75 0 140 51.5t105 130t62.5 166t22.5 166.5
q0 117 -58.5 200t-158.5 83q-77 0 -142 -50t-105 -128.5t-62.5 -167.5t-22.5 -173z" />
    <glyph glyph-name="oneoldstyle" unicode="&#xf731;" horiz-adv-x="569" 
d="M203 197l80 405q18 94 18 117q0 26 -14 37.5t-29 11.5q-18 0 -65 -12v39l233 90h35l-135 -688q-15 -74 -15 -93q0 -67 92 -67h31l-8 -37h-399l8 37q36 0 58 1.5t40.5 10.5t27 16t17.5 30.5t13 41t12 60.5z" />
    <glyph glyph-name="twooldstyle" unicode="&#xf732;" horiz-adv-x="815" 
d="M662 102v-102h-652v35q290 195 384 272q149 122 188 228q18 49 18 104q0 81 -39.5 124.5t-101.5 43.5q-137 0 -271 -152l-28 21l40 45t56 53t76 56.5t89.5 39t106.5 17.5q55 0 96 -17t63 -44.5t32 -58t10 -62.5q0 -38 -8.5 -75t-20.5 -69t-38 -68t-47.5 -63t-62.5 -64
t-70.5 -62t-84 -65t-90 -65.5t-100.5 -71.5h455z" />
    <glyph glyph-name="threeoldstyle" unicode="&#xf733;" horiz-adv-x="778" 
d="M-33 -139l21 26q107 -69 207 -69q72 0 139.5 36t112.5 105.5t45 155.5q0 53 -18.5 93.5t-49.5 63t-66.5 34t-74.5 11.5q-38 0 -84 -8v35q36 7 76 18.5t93 37t94 57.5t70 82t29 108q0 82 -53.5 127t-116.5 45q-55 0 -95.5 -21.5t-105.5 -76.5l-24 27q43 45 91.5 75.5
t91.5 43t69.5 16.5t48.5 4q15 0 36.5 -3t55.5 -15.5t60.5 -32.5t46.5 -58.5t20 -89.5q0 -101 -79.5 -182t-203.5 -133q23 -6 42 -12.5t56.5 -28t63 -48.5t46 -75t20.5 -107q0 -138 -117 -242t-266 -104q-29 0 -64 5t-99.5 30.5t-117.5 69.5z" />
    <glyph glyph-name="fouroldstyle" unicode="&#xf734;" horiz-adv-x="897" 
d="M823 86v-86h-229l-76 -369h-117l74 369h-543v35l807 850h35l-162 -799h211zM492 86l129 616l-588 -616h459z" />
    <glyph glyph-name="fiveoldstyle" unicode="&#xf735;" horiz-adv-x="716" 
d="M727 858v-76h-371l-94 -473q3 0 25 2t32 2q76 0 148 -33t122 -102t50 -158q0 -67 -28 -130t-77.5 -112t-124 -78.5t-161.5 -29.5q-157 0 -289 109l25 28q74 -52 120.5 -73t110.5 -21q131 0 208 92.5t77 219.5q0 55 -18 100t-44 71.5t-59.5 44.5t-61.5 24.5t-51 6.5
q-48 0 -121 -20l125 606h457z" />
    <glyph glyph-name="sixoldstyle" unicode="&#xf736;" horiz-adv-x="942" 
d="M940 1223v-35q-205 -44 -370 -196.5t-267 -407.5q23 26 35 38.5t44.5 41t61 43.5t72.5 28t90 13q104 0 175 -93.5t71 -210.5q0 -57 -17.5 -119t-53.5 -121.5t-85 -107t-116.5 -77t-143.5 -29.5q-137 0 -223 95t-86 271q0 153 65.5 301t175 263t259.5 196t313 107z
M264 311q0 -138 61 -209t140 -71q23 0 52 8.5t66 34t67 64t50.5 105.5t20.5 152q0 66 -14.5 116t-36.5 78.5t-52.5 46.5t-57 24t-54.5 6q-89 0 -165.5 -99.5t-76.5 -255.5z" />
    <glyph glyph-name="sevenoldstyle" unicode="&#xf737;" horiz-adv-x="843" 
d="M389 80l316 690h-353q-40 0 -63.5 -1.5t-52 -9.5t-45.5 -22.5t-32.5 -42t-25.5 -67.5h-33l47 235h738l-336 -733q-145 -317 -283 -424q-56 -44 -125.5 -71.5t-130.5 -26.5v31q51 9 99.5 40.5t85 71.5t74.5 100t63.5 111t56.5 119z" />
    <glyph glyph-name="eightoldstyle" unicode="&#xf738;" horiz-adv-x="724" 
d="M242 799q0 112 96.5 206.5t218.5 94.5q84 0 141.5 -55t57.5 -140q0 -87 -68 -167.5t-201 -170.5q2 -3 42 -70t46 -81q43 -89 43 -170q0 -27 -10.5 -59.5t-35.5 -68t-60.5 -64.5t-91 -47.5t-121.5 -18.5q-55 0 -97.5 15t-66 36.5t-39 49t-20 48.5t-4.5 39q0 48 18.5 93
t42 76.5t69 70t73 58t81.5 54.5q-114 161 -114 271zM350 864q0 -50 22 -105.5t91 -158.5q31 18 62 42.5t65 59.5t55 80.5t21 91.5q0 25 -7.5 52t-23.5 54.5t-48 45.5t-75 18q-74 0 -118 -54t-44 -126zM168 217q0 -15 2 -32t12 -45t26 -49t49 -36.5t77 -15.5q80 0 123 57.5
t43 116.5q0 45 -21 99.5t-42 89.5t-62 96q-207 -133 -207 -281z" />
    <glyph glyph-name="nineoldstyle" unicode="&#xf739;" horiz-adv-x="958" 
d="M33 -354v37q62 16 100 28.5t91 35.5t102 57.5t98 82.5q197 188 262 402q-30 -34 -49.5 -52.5t-59.5 -49.5t-88 -46.5t-102 -15.5q-48 0 -90.5 19.5t-71.5 50.5t-49.5 70.5t-30.5 80t-10 78.5q0 75 29 154.5t80.5 148t132 112.5t172.5 44q79 0 140 -31t97 -85t54 -120.5
t18 -142.5q0 -110 -35 -216.5t-93.5 -192t-119.5 -150t-127 -115.5q-65 -50 -130.5 -85t-128.5 -54.5t-100.5 -28t-90.5 -16.5zM266 487q0 -131 56 -206.5t155 -75.5q94 0 171 103.5t77 248.5q0 113 -55 198t-148 85q-103 0 -179.5 -101.5t-76.5 -251.5z" />
    <glyph glyph-name="a.superior" horiz-adv-x="555" 
d="M582 905l-68 -315q-8 -34 4 -46t51 -9l-8 -27l-158 -33l15 66q-36 -33 -68.5 -49.5t-79.5 -16.5q-71 0 -103 35t-32 94q0 40 16 82t51.5 83.5t86.5 73t127 49.5t166 13zM430 596l57 260q-66 4 -119 -16t-83.5 -55.5t-46 -77t-15.5 -84.5q0 -54 25 -74.5t59 -20.5
q27 0 54 14t37.5 23.5t31.5 30.5z" />
    <glyph glyph-name="b.superior" horiz-adv-x="485" 
d="M338 1219l-86 -369q78 53 137 53q66 0 109 -46t43 -105q0 -41 -20.5 -87.5t-59 -89.5t-105.5 -71.5t-149 -28.5h-115l135 629q4 16 4 26q0 26 -21.5 31.5t-49.5 -0.5l4 25zM260 813l-74 -307q31 -3 65 -1.5t68 13.5q43 16 72.5 44.5t42 62t17 58.5t4.5 48
q0 39 -12.5 65.5t-32 38t-33.5 15.5t-25 4q-27 0 -58 -14.5t-34 -26.5z" />
    <glyph glyph-name="d.superior" horiz-adv-x="526" 
d="M629 1219l-133 -611q-9 -27 -9 -49q0 -29 35 -29q9 0 49 5l-4 -25l-188 -35l10 51q-74 -49 -135 -49q-57 0 -96 43.5t-39 100.5q0 59 32 118.5t89 98.5q39 27 82.5 41t70 16.5t82.5 5.5l39 189q8 40 8 47q0 28 -35 28q-29 0 -53 -8l4 25zM397 563l68 307
q-63 0 -86.5 -2.5t-52.5 -13.5q-33 -14 -58 -41.5t-38 -58.5t-19 -59t-6 -52q0 -46 28 -82.5t72 -36.5q47 0 92 39z" />
    <glyph glyph-name="e.superior" horiz-adv-x="425" 
d="M469 625l18 -23q-95 -127 -204 -127q-74 0 -112 36.5t-38 96.5q0 115 86.5 206t190.5 91q44 0 68 -19t24 -52q0 -52 -68 -97.5t-207 -70.5q-9 -129 95 -129q42 0 70.5 19t76.5 69zM412 813q0 18 -14.5 30.5t-35.5 12.5q-36 0 -67.5 -31.5t-47.5 -67t-20 -61.5
q51 9 88 22.5t55 26.5t28.5 28.5t12 23.5t1.5 16z" />
    <glyph glyph-name="i.superior" horiz-adv-x="342" 
d="M354 905l-65 -317q-6 -24 -6 -53q0 -21 41 -21h30l-4 -29h-241l6 29q54 0 67 13.5t25 76.5l41 191q1 4 2 9t1.5 8t0.5 7q0 29 -29 29q-10 0 -59 -8l6 32zM315 1077q20 0 33.5 -13t13.5 -32t-13 -33t-34 -14q-19 0 -32 13.5t-13 33.5t13.5 32.5t31.5 12.5z" />
    <glyph glyph-name="l.superior" horiz-adv-x="342" 
d="M416 1219l-135 -641q0 -1 -3.5 -18.5t-3.5 -24.5q0 -12 9.5 -16.5t35.5 -4.5h35l-6 -29h-252l6 29h32t22.5 5.5t15 9t10 20t9.5 28t10 44.5l104 487q1 4 1.5 7t1 4.5l1 3t0.5 2.5v3q0 27 -33 27q-16 0 -57 -8l6 31z" />
    <glyph glyph-name="m.superior" horiz-adv-x="747" 
d="M279 770l-43 -192l-7 -35q0 -14 9.5 -20.5t19.5 -7.5t31 -1l-6 -29h-197l6 29q27 3 39.5 18.5t22.5 61.5l43 199q8 41 -5.5 48.5t-56.5 2.5l6 28l166 33l-14 -63q34 31 65 47t74 16q89 0 103 -69q22 21 36 32t44.5 25t60.5 14q50 0 79 -28.5t29 -61.5q0 -27 -8 -67
l-39 -172q-6 -18 -6 -35q0 -11 5 -17.5t15.5 -8.5t14.5 -2.5t16 -0.5l-6 -29h-203l7 29q38 3 50 17.5t23 62.5l35 160q6 18 6 47q0 23 -17.5 36t-39.5 13q-46 0 -102 -59l-48 -213q-6 -24 -6 -31q0 -20 9.5 -25t46.5 -8l-7 -29h-204l6 29q20 1 32.5 6.5t20 17.5t10.5 22.5
t8 33.5l39 178q2 6 2 31q0 22 -13 35.5t-36 13.5q-65 0 -116 -82z" />
    <glyph glyph-name="n.superior" horiz-adv-x="555" 
d="M315 905l-14 -65q25 20 42 31t45.5 21.5t57.5 10.5q51 0 91.5 -27.5t40.5 -78.5q0 -43 -13 -82l-30 -137q-7 -35 -7 -41q0 -29 33 -29h33l-4 -23h-230l5 23q49 3 60.5 15.5t23.5 70.5l34 162q4 20 4 39q0 31 -21.5 47t-41.5 16q-27 0 -76 -27q-6 -3 -29.5 -24t-25.5 -23
l-47 -204q-6 -44 -6 -45q0 -19 12 -23t49 -4l-4 -23h-203l4 23q33 3 43.5 19.5t20.5 66.5l43 190q4 12 4 33q0 15 -8.5 24t-20.5 9q-21 0 -53 -8l4 26z" />
    <glyph glyph-name="o.superior" horiz-adv-x="491" 
d="M397 905q63 0 102.5 -43.5t39.5 -95.5q0 -60 -33 -126t-98.5 -115.5t-143.5 -49.5q-63 0 -104 40t-41 103q0 103 83 195t195 92zM362 866q-57 0 -104 -71.5t-47 -169.5q0 -46 20.5 -77.5t61.5 -31.5q65 0 109 76t44 170q0 31 -10 53.5t-25 32.5t-27 14t-22 4z" />
    <glyph glyph-name="r.superior" horiz-adv-x="405" 
d="M322 901l-27 -113q13 23 22 36t27 35.5t38.5 34t41.5 11.5q29 0 59 -35l-51 -82q-43 39 -51 39q-26 0 -63.5 -76.5t-47.5 -123.5l-12 -52q-4 -16 -4 -28q0 -23 15 -28t57 -5l-7 -29h-227l6 29q39 0 51.5 11.5t24.5 64.5l41 188q6 36 6 41q0 29 -28 29q-13 0 -48 -6l7 30z
" />
    <glyph glyph-name="s.superior" horiz-adv-x="342" 
d="M434 901l-24 -104h-33q-4 20 -9 33.5t-23 27.5t-46 14q-25 0 -41 -14.5t-16 -32.5q0 -20 10.5 -38t54.5 -68q42 -49 56 -72.5t14 -56.5q0 -56 -51 -85.5t-123 -29.5q-27 0 -43 4q-8 4 -13 4q-6 0 -18 -8h-33l25 113h35q-5 -35 13 -59.5t52 -24.5q31 0 55.5 17t24.5 44
q0 22 -11.5 41.5t-47.5 59.5q-4 4 -10 12q-38 45 -48 62t-10 42q0 45 38 84t112 39q5 0 32 -3t31 -3l16 2h31z" />
    <glyph glyph-name="t.superior" horiz-adv-x="342" 
d="M418 893l-10 -39h-117l-55 -254q-7 -38 -7 -47q0 -23 25 -23q49 0 133 66l23 -21q-115 -100 -209 -100q-26 0 -44 13.5t-18 39.5q0 18 13 84l53 242h-84l6 27q63 7 96 33t66 85h33l-23 -106h119z" />
    <glyph glyph-name="Q.alt" horiz-adv-x="1153" 
d="M139 393q0 104 28.5 213t84 208t129 177t171 124t202.5 46q172 0 273 -114.5t101 -309.5q0 -159 -62 -313.5t-171 -269t-240 -156.5q133 -158 200 -211t136 -53q71 0 121 37l25 -25q-97 -90 -217 -90q-190 0 -439 319q-157 17 -249.5 130t-92.5 288zM291 367
q0 -157 72 -252t192 -95q80 0 150.5 48.5t119 127t84 177.5t52 201.5t16.5 197.5q0 152 -73 248t-189 96q-95 0 -177.5 -70.5t-135 -181.5t-82 -241.5t-29.5 -255.5z" />
    <glyph glyph-name="zero.numerator" 
d="M162 782q0 106 51 203t129 154t156 57q70 0 127 -59.5t57 -157.5q0 -78 -30.5 -155.5t-78 -134t-107.5 -91.5t-116 -35q-79 0 -133.5 62.5t-54.5 156.5zM268 786q0 -96 34.5 -141t70.5 -45q57 0 104.5 58.5t72.5 144.5t25 174q0 47 -9.5 83t-22.5 54t-29.5 29t-26.5 13.5
t-18 2.5q-74 0 -137.5 -112.5t-63.5 -260.5z" />
    <glyph glyph-name="one.numerator" 
d="M332 672l90 379q8 35 8 47q0 18 -16 18q-3 0 -35 -6.5t-35 -7.5l6 33l164 63h37l-121 -514q-8 -32 -8 -51q0 -29 39 -29h35l-7 -31h-264l11 31h26q37 0 48 11.5t22 56.5z" />
    <glyph glyph-name="two.numerator" 
d="M563 639l-14 -66h-404v27q390 299 390 455q0 41 -26.5 65.5t-66.5 24.5q-32 0 -67.5 -18t-51 -31.5t-42.5 -38.5l-31 20q23 24 39 38.5t47 37.5t68 35t77 12q60 0 110 -33.5t50 -89.5q0 -83 -81.5 -177.5t-303.5 -260.5h307z" />
    <glyph glyph-name="three.numerator" 
d="M131 649l25 23l21 -12t25.5 -13.5t22.5 -9.5q40 -16 86 -16q47 0 83.5 17.5t56 44.5t29 53.5t9.5 49.5q0 35 -20 57t-49 27.5t-61 8t-56 -1.5l8 28q34 8 56.5 14.5t57.5 20.5t56.5 29.5t37.5 40t16 53.5q0 44 -27.5 63t-58.5 19q-59 0 -140 -62l-28 23q97 94 217 94
q67 0 106 -33.5t39 -76.5q0 -110 -176 -172q56 -18 94.5 -58.5t38.5 -91.5q0 -84 -76 -143.5t-182 -59.5q-53 0 -99.5 17t-66.5 31t-45 36z" />
    <glyph glyph-name="four.numerator" 
d="M657 784l-12 -53h-129l-39 -166h-92l37 166h-320l4 25l484 442h39l-99 -414h127zM436 784l68 281l-307 -281h239z" />
    <glyph glyph-name="five.numerator" 
d="M373 1128l-60 -227q16 4 58 4q45 0 89 -14.5t78.5 -51t34.5 -87.5q0 -78 -65.5 -133.5t-169.5 -55.5q-21 0 -41 2t-37 7t-29.5 9t-26.5 11.5t-20 10.5t-18.5 11t-13.5 9l22 26q78 -47 143 -47q68 0 108 47t40 101q0 38 -16 64.5t-40 37t-41.5 14.5t-31.5 4q-23 0 -78 -8
l86 322h301l-27 -56h-245z" />
    <glyph glyph-name="six.numerator" 
d="M668 1200v-26q-72 -10 -129 -34t-99 -64.5t-66.5 -73t-56.5 -84.5q68 47 136 47q80 0 121.5 -51.5t41.5 -106.5q0 -91 -76.5 -167.5t-183.5 -76.5q-93 0 -141.5 59.5t-48.5 133.5q0 79 40 157t107 139t160.5 101.5t194.5 46.5zM412 911q-56 0 -100 -47t-44 -125
q0 -43 13.5 -73.5t34 -43.5t35.5 -18.5t26 -5.5q51 0 95 48t44 136q0 67 -32.5 98t-71.5 31z" />
    <glyph glyph-name="seven.numerator" 
d="M674 1184v-23l-318 -594h-108l354 551h-217q-26 0 -37 -0.5t-28 -3.5t-26 -10.5t-20.5 -21.5t-23.5 -35h-47l51 137h420z" />
    <glyph glyph-name="eight.numerator" 
d="M471 911q86 -107 86 -182q0 -64 -56.5 -115t-150.5 -51q-85 0 -128.5 39t-43.5 90q0 66 76 127q18 16 111 74q-46 59 -61 90t-15 57q0 61 64.5 110.5t142.5 49.5q65 0 106 -32.5t41 -80.5q0 -27 -15.5 -53t-41.5 -47t-51.5 -37.5t-52.5 -32.5q-3 -1 -4 -2t-3 -2z
M379 1073q0 -58 67 -135q109 59 109 133q0 38 -25.5 63t-62.5 25q-40 0 -64 -26.5t-24 -59.5zM387 864q-24 -16 -39.5 -27.5t-38 -34t-34 -51.5t-11.5 -63t26.5 -61t67.5 -27q39 0 72 25t33 80q0 39 -16 70t-60 89z" />
    <glyph glyph-name="nine.numerator" 
d="M172 561v27q59 7 111 28t85 44t66.5 61t49 61t38.5 62q-65 -47 -135 -47q-81 0 -123.5 51.5t-42.5 105.5q0 91 77 167.5t185 76.5q94 0 142.5 -60t48.5 -132q0 -105 -67 -205t-184 -166t-251 -74zM428 850q55 0 99 46.5t44 125.5q0 36 -10.5 63.5t-24 41.5t-30.5 22
t-27 10t-16 2q-50 0 -94.5 -47t-44.5 -135q0 -68 33 -98.5t71 -30.5z" />
    <glyph glyph-name="zero.denominator" 
d="M61 209q0 106 51 203t129 154t156 57q70 0 127.5 -59.5t57.5 -157.5q0 -78 -30.5 -155.5t-78 -134t-107.5 -91.5t-116 -35q-79 0 -134 62.5t-55 156.5zM170 213q0 -97 33.5 -141.5t68.5 -44.5q57 0 104.5 58t73 144t25.5 174q0 47 -9.5 83t-22.5 54.5t-29.5 29.5
t-26.5 13.5t-18 2.5q-74 0 -136.5 -112.5t-62.5 -260.5z" />
    <glyph glyph-name="one.denominator" 
d="M217 98l90 379q8 35 8 47q0 21 -16 21q-2 0 -35 -7.5t-35 -7.5l7 33l163 64h37l-121 -516q-8 -24 -8 -52t39 -28h35l-6 -31h-264l10 31h26q37 0 48 11.5t22 55.5z" />
    <glyph glyph-name="two.denominator" 
d="M449 66l-15 -66h-403v27q389 298 389 454q0 42 -26.5 67t-65.5 25q-31 0 -66.5 -18.5t-52 -32.5t-43.5 -39l-31 21q23 24 39 38.5t47.5 37.5t68.5 35t77 12q60 0 109.5 -33.5t49.5 -89.5q0 -83 -81.5 -176.5t-303.5 -261.5h308z" />
    <glyph glyph-name="three.denominator" 
d="M16 74l25 22q42 -25 76 -38t80 -13q47 0 83.5 18t56 45.5t29 54t9.5 48.5q0 36 -20.5 58t-49.5 27t-61 7t-56 -2l9 29q34 8 56.5 14.5t57.5 20t56 29t37 40t16 53.5q0 44 -27.5 63t-58.5 19q-59 0 -139 -61l-29 22q98 95 217 95q66 0 105.5 -34t39.5 -77
q0 -110 -176 -172q56 -19 94.5 -58.5t38.5 -90.5q0 -84 -76 -143.5t-182 -59.5q-53 0 -99.5 17t-66.5 31t-45 36z" />
    <glyph glyph-name="four.denominator" 
d="M553 211l-12 -53h-127l-41 -166h-92l38 166h-321l4 26l483 443h39l-98 -416h127zM332 211l67 281l-307 -281h240z" />
    <glyph glyph-name="five.denominator" 
d="M279 557l-60 -229q16 4 57 4q73 0 138 -40t65 -114q0 -78 -65.5 -133t-169.5 -55q-19 0 -37 2t-31.5 4.5t-29 7.5t-24 8.5t-21 10t-17 9.5t-15.5 9.5t-12 7.5l23 27q1 0 12.5 -6.5t15 -8.5t15 -7.5t18 -8t18 -6.5t21 -5.5t21.5 -3t24 -1.5q67 0 106.5 46.5t39.5 100.5
q0 39 -16 65.5t-40 37t-41.5 14.5t-31.5 4q-23 0 -78 -8l86 323h301l-27 -55h-245z" />
    <glyph glyph-name="six.denominator" 
d="M565 627v-27q-59 -7 -108.5 -26.5t-82.5 -41.5t-65.5 -58t-50 -62t-43.5 -68q68 47 135 47q80 0 123 -51.5t43 -106.5q0 -91 -77.5 -167t-184.5 -76q-93 0 -142 59t-49 133q0 105 67 205t184 166t251 74zM309 338q-55 0 -99 -47t-44 -125q0 -43 13.5 -73t33.5 -43t35 -18
t26 -5q51 0 95.5 47.5t44.5 134.5q0 67 -33 98t-72 31z" />
    <glyph glyph-name="seven.denominator" 
d="M106 473l52 139h420v-24l-318 -592h-108l354 549h-217q-26 0 -37.5 -0.5t-27.5 -4t-25.5 -11t-21 -21t-23.5 -35.5h-48z" />
    <glyph glyph-name="eight.denominator" 
d="M367 338q86 -107 86 -182q0 -64 -56.5 -115t-150.5 -51q-85 0 -128.5 39t-43.5 90q0 66 76 127q17 15 110 73q-46 58 -61 90t-15 58q0 61 64.5 110.5t142.5 49.5q65 0 106.5 -32.5t41.5 -80.5q0 -27 -15.5 -53t-41.5 -47t-51.5 -37.5t-52.5 -32.5q-8 -4 -11 -6zM274 500
q0 -57 68 -135q24 12 45 27.5t42.5 45.5t21.5 62q0 36 -26 61t-63 25q-40 0 -64 -26.5t-24 -59.5zM283 291q-24 -16 -39.5 -27.5t-38 -34t-34 -51.5t-11.5 -63t26.5 -61t67.5 -27q39 0 71.5 24.5t32.5 79.5q0 39 -16 71t-59 89z" />
    <glyph glyph-name="nine.denominator" 
d="M57 -12v26q59 7 111 28t85.5 44t66.5 61t49 61.5t39 61.5q-65 -47 -136 -47q-81 0 -123.5 52t-42.5 106q0 90 77.5 167t185.5 77q64 0 109 -32t63 -74t18 -87q0 -79 -40 -157t-107 -139t-160.5 -101.5t-194.5 -46.5zM313 276q55 0 99.5 47t44.5 126q0 36 -10.5 64
t-24.5 42t-31 22.5t-27 10.5t-16 2q-50 0 -94.5 -47.5t-44.5 -136.5q0 -68 33 -99t71 -31z" />
    <glyph glyph-name="dollar.oldstyle" horiz-adv-x="854" 
d="M336 -23l-47 -227h-39l47 230q-139 13 -234 98l50 250l34 -6q-8 -48 -8 -82q0 -53 21.5 -102t69.5 -84.5t114 -35.5q73 0 142 61.5t69 166.5q0 124 -117 266q-57 67 -80 95.5t-55.5 73.5t-44 73.5t-20.5 66t-9 80.5q0 106 85 188t229 82l10 50h39l-12 -54
q56 -7 102 -22.5t100 -54.5l-47 -228l-30 8q-1 27 -3.5 49.5t-14 63.5t-30.5 69t-57.5 50t-89.5 22q-74 0 -125 -50t-51 -124q0 -69 39 -130.5t162 -207.5q68 -81 107.5 -158t39.5 -165q0 -58 -22 -113.5t-63.5 -101.5t-109.5 -72.5t-151 -24.5z" />
    <glyph glyph-name="dollar.superior" 
d="M504 1208l-6 -28q57 -5 116 -43l-30 -127l-39 8q-4 32 -8 50.5t-16.5 39t-33.5 29.5l-51 -213q38 -39 59 -63.5t40.5 -62.5t19.5 -73q0 -69 -59 -115t-146 -49l-26 -117h-50l27 117q-82 14 -135 55l33 140l41 -8q-2 -33 -0.5 -62.5t19.5 -53.5t52 -32l62 256
q-74 82 -91.5 109.5t-17.5 68.5q0 58 48 101.5t139 46.5l6 26h47zM399 967l43 180q-38 0 -65 -22.5t-27 -61.5q0 -20 7.5 -38t16 -28.5t25.5 -29.5zM412 813l-52 -217q35 6 66 34.5t31 78.5q0 27 -10 47.5t-35 56.5z" />
    <glyph glyph-name="parenleft.superior" horiz-adv-x="342" 
d="M305 256h-47q-51 70 -96 177t-45 210q0 154 87.5 290t258.5 271h53q-48 -47 -77 -77.5t-78 -96.5t-77 -126t-50.5 -149t-22.5 -184q0 -68 15.5 -130t31.5 -96t47 -89z" />
    <glyph glyph-name="parenright.superior" horiz-adv-x="342" 
d="M209 1204h47q49 -66 95 -174t46 -213q0 -292 -346 -561h-55q47 45 77 77t78.5 96.5t77.5 125.5t51.5 150t22.5 184q0 68 -15.5 130t-31.5 96t-47 89z" />
    <glyph glyph-name="comma.superior" horiz-adv-x="342" 
d="M104 332v35q109 26 109 108q-55 12 -55 57q0 23 18 40.5t49 17.5q32 0 51 -18t23 -34t4 -30q0 -56 -50 -108t-149 -68z" />
    <glyph glyph-name="period.superior" horiz-adv-x="342" 
d="M225 598q25 0 43.5 -17.5t18.5 -43.5t-18 -44t-44 -18t-43.5 18t-17.5 44t17.5 43.5t43.5 17.5z" />
    <glyph glyph-name="cent.superior" horiz-adv-x="468" 
d="M264 565l-80 -276h-41l78 276q-36 7 -60 24t-33.5 38.5t-12 35t-2.5 27.5q0 31 11 64.5t33.5 70t66.5 66.5t102 45l75 268h45l-75 -264h51l8 4h31l-17 -115h-41q8 56 -45 68l-79 -281q25 1 42.5 6.5t28.5 11.5t56 32l24 -23q-97 -73 -166 -78zM240 627l75 268
q-57 -22 -82.5 -80.5t-25.5 -109.5q0 -25 5 -41t10.5 -22t17.5 -15z" />
    <glyph glyph-name="parenleft.inferior" horiz-adv-x="342" 
d="M190 -223h-47q-50 67 -95.5 175t-45.5 212q0 154 87.5 290t258.5 271h55q-49 -48 -77.5 -78.5t-78.5 -96.5t-78 -125.5t-50.5 -148.5t-22.5 -184q0 -68 15.5 -130t31.5 -96t47 -89z" />
    <glyph glyph-name="parenright.inferior" horiz-adv-x="342" 
d="M94 725h47q49 -66 95.5 -174t46.5 -213q0 -292 -346 -561h-54q47 46 76 77t78 96.5t77.5 126t51 149.5t22.5 184q0 68 -15.5 130t-31.5 96t-47 89z" />
    <glyph glyph-name="hyphen.superior" horiz-adv-x="405" 
d="M451 719l-15 -57h-295l17 57h293z" />
    <glyph glyph-name="cent.oldstyle" 
d="M604 700h23l-23 -196h-29q5 50 -23 89t-93 46l-142 -576q116 -16 236 87l22 -25q-56 -48 -85.5 -70.5t-83 -46.5t-107.5 -26l-133 -541h-31l133 543q-89 7 -138.5 72.5t-49.5 166.5q0 160 105.5 299t254.5 168l127 522h33l-127 -518q6 1 27 -1t41 -4.5t22 -2.5
q13 0 41 14zM289 70l139 569q-70 -12 -123.5 -77t-78.5 -149.5t-25 -168.5q0 -141 88 -174z" />
    <glyph glyph-name="CR" horiz-adv-x="460" 
 />
    <glyph glyph-name="hyphen.inferior" horiz-adv-x="405" 
d="M367 240l-15 -60h-295l17 60h293z" />
    <glyph glyph-name="cent.inferior" horiz-adv-x="491" 
d="M209 -16l-37 -152h-25l39 154q-68 6 -105.5 56.5t-37.5 125.5q0 124 83 228.5t189 125.5l35 146h25l-33 -144q6 0 36.5 -3t31.5 -3q10 0 30 10h17l-17 -149h-22q10 86 -86 104l-109 -436q87 -13 178 64l17 -19q-44 -37 -66 -53.5t-62 -34t-81 -20.5zM201 51l106 430
q-79 -13 -125.5 -104t-46.5 -195q0 -106 66 -131z" />
    <glyph glyph-name="dollar.inferior" horiz-adv-x="704" 
d="M457 928l-11 -41q89 -13 154 -60l-37 -172l-22 7q-4 36 -8.5 59.5t-15 51t-29.5 45.5t-48 28l-69 -332q45 -57 64 -83t44 -66.5t34 -73.5t9 -70q0 -98 -70.5 -166t-189.5 -69l-35 -172h-32l32 172q-108 14 -174 75l39 191l25 -6q-4 -26 -0.5 -62t11 -68.5t36 -59.5
t74.5 -36l81 396q-2 3 -27.5 35.5t-49.5 63t-25 32.5q-37 66 -37 131q0 22 4 45t19 53t39.5 53t70 39.5t105.5 18.5l8 41h31zM346 545l64 309q-78 1 -114 -39.5t-36 -93.5q0 -47 19 -81.5t67 -94.5zM344 383l-74 -365q66 2 112 52t46 123q0 24 -3.5 43t-23.5 58.5t-57 88.5z
" />
    <glyph glyph-name="period.inferior" horiz-adv-x="342" 
d="M152 115q25 0 43 -18t18 -44t-17.5 -44.5t-43.5 -18.5t-44 18.5t-18 44.5t18 44t44 18z" />
    <glyph glyph-name="comma.inferior" horiz-adv-x="342" 
d="M23 -147v32q45 11 76.5 38t31.5 73q-55 12 -55 57q0 23 18 40.5t49 17.5q32 0 51 -18t23 -34t4 -30q0 -56 -49.5 -108t-148.5 -68z" />
    </font>
</defs>
</svg>
